DHTCLUB - 高品质影视资源分享俱乐部

标题: 伟大的抗美援朝.英雄.Heroes.2020.WEB-DL.4K.H265.AAC-DHTCLUB [打印本页]

作者: dhtclub    时间: 2020-10-25 15:40
标题: 伟大的抗美援朝.英雄.Heroes.2020.WEB-DL.4K.H265.AAC-DHTCLUB
(, 下载次数: 37)
General
Format                         : MPEG-4
Format profile                 : Base Media
Codec ID                       : isom (isom/iso2/mp41)
File size                      : 1.07 GiB
Duration                       : 43 min 12 s
Overall bit rate               : 3 539 kb/s
Writing application            : Lavf58.35.100

Video
ID                             : 1
Format                         : HEVC
Format/Info                    : High Efficiency Video Coding
Format profile                 : [email protected]@Main
Codec ID                       : hev1
Codec ID/Info                  : High Efficiency Video Coding
Duration                       : 43 min 12 s
Bit rate                       : 3 405 kb/s
Width                          : 3 840 pixels
Height                         : 2 160 pixels
Display aspect ratio           : 16:9
Frame rate mode                : Variable
Frame rate                     : 23.976 (23976/1000) FPS
Minimum frame rate             : 23.974 FPS
Maximum frame rate             : 23.981 FPS
Color space                    : YUV
Chroma subsampling             : 4:2:0
Bit depth                      : 8 bits
Bits/(Pixel*Frame)             : 0.017
Stream size                    : 1.03 GiB (96%)
Codec configuration box        : hvcC

Audio
ID                             : 2
Format                         : AAC LC
Format/Info                    : Advanced Audio Codec Low Complexity
Codec ID                       : mp4a-40-2
Duration                       : 43 min 12 s
Bit rate mode                  : Constant
Bit rate                       : 128 kb/s
Channel(s)                     : 2 channels
Channel layout                 : L R
Sampling rate                  : 48.0 kHz
Frame rate                     : 46.875 FPS (1024 SPF)
Compression mode               : Lossy
Stream size                    : 39.5 MiB (4%)
Default                        : Yes
Alternate group                : 1







欢迎光临 DHTCLUB - 高品质影视资源分享俱乐部 (https://www.dhtclub.com/) Powered by Discuz! X3.4