开启左侧

恋爱革命.Love.Revolution.S01.2020.1080p.WEB-DL.H265.AAC-DHTCLUB

[复制链接]
dhtclub 发表于 2021-1-16 11:02 | 显示全部楼层 |阅读模式 打印 上一主题 下一主题

恋爱革命购买VIP查看下载地址(2020)1080P 

简介该剧改编自NaverWebtoon不倒的1位网漫《恋爱革命》,同时作为Kakao揭幕作,通过主人公具体讲述了10代青少年们的文化,其中朴志训饰演的主人公则是拥有世上全部可爱的生命体。
导演徐柱元
编剧郭景允 / 232 (原作)
类型喜剧 爱情 
地区韩国 
语言韩语 
集数30集
资源大小13.3G
字幕语言内嵌简中 内嵌繁中 内嵌英语 
豆瓣评分7.4
豆瓣链接https://movie.douban.com/subject/35059141/
IMDB评分无分
IMDB链接
演员表

恋爱革命 的主要演员表……

朴志训 / 李璐菲 / 金泳勋 / 郑多恩 / 任多荣 / 高灿彬 / 安道奎 / 金承熙
影片介绍

恋爱革命 的剧情介绍……

该剧改编自NaverWebtoon不倒的1位网漫《恋爱革命》,同时作为Kakao揭幕作,通过主人公具体讲述了10代青少年们的文化,其中朴志训饰演的主人公则是拥有世上全部可爱的生命体。
资源下载
1080i/p下载地址 点击查看
4K下载地址 点击查看
《恋爱革命》下载帮助和注意事项:
1、本站所有资源均为磁力链资源,无需注册登录即可查看下载地址
2、使用迅雷或网盘离线是无法下载资源的!必须使用BT下载工具,如果没有下载速度请添加我们提供的tracker服务器列表
3、推荐BT下载工具:比特彗星qbittorrentutorrent 内网使用路由请做好端口映射或开启UPnP
4、不管选择哪种P2P下载工具,都希望你能在条件允许的前提下不要限速多做种分享上传一段时间
5、刻意限制P2P下载工具的上传速度(此行为俗称:吸血)将影响你的下载速度 防止被吸血和防止运营商过滤的教程
6、人人为我我为人人,只有大家不限制上传速度,大家才能共同获得更快的下载速度,这才是P2P应有的良性循环!
7、所有资源来源网络,本站服务器不存储任何种子文件,如侵犯您的权益,请联系 [email protected] 删除资源
点评&资源版本介绍
 
恋爱革命.E01 大海战2 硬核RTS海战游戏-画面党手残党慎入.jpg
General
Unique ID                      : 91926576295629114870132641439817830949 (0x45286A230C091FFA2A14F74FBCEE9225)
Format                         : Matroska
Format version                 : Version 4
File size                      : 523 MiB
Duration                       : 22 min 5 s
Overall bit rate               : 3 311 kb/s
Encoded date                   : UTC 2020-12-31 10:40:27
Writing application            : mkvmerge v43.0.0 ('The Quartermaster') 64-bit
Writing library                : libebml v1.3.10 + libmatroska v1.5.2

Video
ID                             : 1
Format                         : HEVC
Format/Info                    : High Efficiency Video Coding
Format profile                 : [email protected]@High
Codec ID                       : V_MPEGH/ISO/HEVC
Duration                       : 22 min 5 s
Bit rate                       : 3 183 kb/s
Width                          : 1 920 pixels
Height                         : 1 072 pixels
Display aspect ratio           : 16:9
Frame rate mode                : Constant
Frame rate                     : 25.000 FPS
Color space                    : YUV
Chroma subsampling             : 4:2:0
Bit depth                      : 8 bits
Bits/(Pixel*Frame)             : 0.062
Stream size                    : 503 MiB (96%)
Default                        : Yes
Forced                         : No

Audio
ID                             : 2
Format                         : AAC LC
Format/Info                    : Advanced Audio Codec Low Complexity
Codec ID                       : A_AAC-2
Duration                       : 22 min 5 s
Bit rate                       : 125 kb/s
Channel(s)                     : 2 channels
Channel layout                 : L R
Sampling rate                  : 44.1 kHz
Frame rate                     : 43.066 FPS (1024 SPF)
Compression mode               : Lossy
Stream size                    : 19.7 MiB (4%)
Language                       : Korean
Default                        : Yes
Forced                         : No

Text #1
ID                             : 3
Format                         : UTF-8
Codec ID                       : S_TEXT/UTF8
Codec ID/Info                  : UTF-8 Plain Text
Duration                       : 21 min 42 s
Bit rate                       : 70 b/s
Count of elements              : 373
Stream size                    : 11.2 KiB (0%)
Title                          : English
Language                       : English
Default                        : Yes
Forced                         : No

Text #2
ID                             : 4
Format                         : UTF-8
Codec ID                       : S_TEXT/UTF8
Codec ID/Info                  : UTF-8 Plain Text
Duration                       : 21 min 33 s
Bit rate                       : 56 b/s
Count of elements              : 451
Stream size                    : 8.97 KiB (0%)
Title                          : 中文(简体)
Language                       : Chinese
Default                        : No
Forced                         : No

Text #3
ID                             : 5
Format                         : UTF-8
Codec ID                       : S_TEXT/UTF8
Codec ID/Info                  : UTF-8 Plain Text
Duration                       : 21 min 33 s
Bit rate                       : 56 b/s
Count of elements              : 451
Stream size                    : 8.97 KiB (0%)
Title                          : 中文(繁體)
Language                       : Chinese
Default                        : No
Forced                         : No

Text #4
ID                             : 6
Format                         : UTF-8
Codec ID                       : S_TEXT/UTF8
Codec ID/Info                  : UTF-8 Plain Text
Duration                       : 21 min 42 s
Bit rate                       : 161 b/s
Count of elements              : 374
Stream size                    : 25.7 KiB (0%)
Title                          : ภาษาไทย
Language                       : Thai
Default                        : No
Forced                         : No

Text #5
ID                             : 7
Format                         : UTF-8
Codec ID                       : S_TEXT/UTF8
Codec ID/Info                  : UTF-8 Plain Text
Duration                       : 21 min 42 s
Bit rate                       : 93 b/s
Count of elements              : 373
Stream size                    : 14.8 KiB (0%)
Title                          : Tiếng Việt
Language                       : Vietnamese
Default                        : No
Forced                         : No

Text #6
ID                             : 8
Format                         : UTF-8
Codec ID                       : S_TEXT/UTF8
Codec ID/Info                  : UTF-8 Plain Text
Duration                       : 21 min 42 s
Bit rate                       : 69 b/s
Count of elements              : 373
Stream size                    : 11.1 KiB (0%)
Title                          : Bahasa Indonesia
Language                       : Indonesian
Default                        : No
Forced                         : No

Text #7
ID                             : 9
Format                         : UTF-8
Codec ID                       : S_TEXT/UTF8
Codec ID/Info                  : UTF-8 Plain Text
Duration                       : 21 min 42 s
Bit rate                       : 71 b/s
Count of elements              : 373
Stream size                    : 11.4 KiB (0%)
Title                          : Bahasa Malaysia
Language                       : Malay
Default                        : No
Forced                         : No


分享快乐!
回复

使用道具 举报

 

精彩评论1

正序浏览
HD_2020 发表于 2021-7-12 13:45 | 显示全部楼层
 
屏幕截图 2021-07-12 132349(1).png 屏幕截图 2021-07-12 132223(1).png 屏幕截图 2021-07-12 131425(1).png

《恋爱革命》这部剧的第4集,部分画面出现类似于花屏的问题,请问下能烦请楼主修复下吗?谢谢。
分享快乐!
回复

使用道具 举报

 
您需要登录后才可以回帖 登录 | 立即注册

本版积分规则

0关注

11粉丝

838帖子

广告位
经典RPG武侠手游,安卓首发。
  • 版块推荐
  • 百宝箱
推荐阅读更多+
会员达人更多+
广告位
经典RPG武侠手游,安卓首发。

信息推荐

更多+

最新信息

更多+

加入我们!分享快乐!

人人为我,我为人人!抵制吸血和收费分享行为!

从我做起!

只分享高品质影视资源

只求质量、不求数量、不抢首发!

Email:[email protected]

DHTCLUB - 高品质影视资源分享俱乐部