开启左侧

大佬.Brother.2000.BluRay.1080p.x265.10bit-DHTCLUB

[复制链接]
dhtclub 发表于 2021-2-15 20:28 | 显示全部楼层 |阅读模式 打印 上一主题 下一主题

大佬Brother(2005~2000)1080P 

简介在黑帮争斗上失败了的山本(北野武饰),走投无路只能去找远在美国洛杉矶的弟弟阿键(真木藏人饰)。在言语不通的陌生城市里,山本找到了弟弟,但他已经成了不务正业的毒品贩子。
  必然地,他们卷入黑帮仇杀、势力争斗当中,山本凭着心狠手辣,冷静果断,再身边有忠诚的手下加藤(寺岛进饰)以及黑人丹尼(欧玛•艾普斯饰),剿灭墨西哥贩毒党,不断壮大自己的地盘,四处挑战其他帮会,还拉拢一大黑帮头领白濑(加藤雅也饰)的甘心加盟。但是黑手党已经将目标瞄准了他们,一场血雨腥风的恶斗在所难免。
导演北野武
编剧北野武
类型剧情 惊悚 罪案 
地区日本 美国 英国 
语言日语 
时长114分钟
资源大小6.5G
字幕语言内嵌简中 内嵌繁中 内嵌英语 
豆瓣评分8.4
豆瓣链接https://movie.douban.com/subject/1294181/
IMDB评分7.1
IMDB链接https://www.imdb.com/title/tt0222851
演员表

大佬 的主要演员表……

北野武 / 欧玛·艾普斯 / 真木藏人 / 加藤雅也 / 寺岛进 / 罗伊尔·沃特金 / 隆巴多·博伊尔 / 大杉涟 / 石桥凌 / 詹姆斯·繁田 / 渡哲也 / 塔缇娜·阿里 / 大竹真 / 奥村公延 / 六平直政 / 片濑梨乃 / 安托万·塔纳 / 约瑟夫·劳格诺 / 罗伯特·科瓦吕比亚 / 阿尔·维森特 / 布拉德利·杰伊·莱斯利 / 洛博·塞巴斯蒂安 / 屈丝苔·奈特 / 莫汉达斯·德维兹 / 阿莫里·诺拉斯科 / Tad Horino / Alvin Ing / 约翰·阿普雷亚 / 曼尼·佩雷斯 / Eddie Garcia / Darryl M. Bell / 井上英治 / 吉奥夫·米德 / 仁科贵 / 诺尔·古格雷米 / Miguel Mas / 森田则之 / 小托马斯·罗萨莱斯
影片介绍

大佬 的剧情介绍……

在黑帮争斗上失败了的山本(北野武饰),走投无路只能去找远在美国洛杉矶的弟弟阿键(真木藏人饰)。在言语不通的陌生城市里,山本找到了弟弟,但他已经成了不务正业的毒品贩子。
  必然地,他们卷入黑帮仇杀、势力争斗当中,山本凭着心狠手辣,冷静果断,再身边有忠诚的手下加藤(寺岛进饰)以及黑人丹尼(欧玛•艾普斯饰),剿灭墨西哥贩毒党,不断壮大自己的地盘,四处挑战其他帮会,还拉拢一大黑帮头领白濑(加藤雅也饰)的甘心加盟。但是黑手党已经将目标瞄准了他们,一场血雨腥风的恶斗在所难免。
资源下载
1080i/p下载地址 点击查看
4K下载地址 点击查看
《大佬》下载帮助和注意事项:
1、本站所有资源均为磁力链资源,无需注册登录即可查看下载地址
2、使用迅雷或网盘离线是无法下载资源的!必须使用BT下载工具,如果没有下载速度请添加我们提供的tracker服务器列表
3、推荐BT下载工具:比特彗星qbittorrentutorrent 内网使用路由请做好端口映射或开启UPnP
4、不管选择哪种P2P下载工具,都希望你能在条件允许的前提下不要限速多做种分享上传一段时间
5、刻意限制P2P下载工具的上传速度(此行为俗称:吸血)将影响你的下载速度 防止被吸血和防止运营商过滤的教程
6、人人为我我为人人,只有大家不限制上传速度,大家才能共同获得更快的下载速度,这才是P2P应有的良性循环!
7、所有资源来源网络,本站服务器不存储任何种子文件,如侵犯您的权益,请联系 [email protected] 删除资源
点评&资源版本介绍
 
大佬 大海战2 硬核RTS海战游戏-画面党手残党慎入.jpg
General
Unique ID                      : 214857925304165965399357948482443441491 (0xA1A42197308CAB1390533DE12AEA7553)
Format                         : Matroska
Format version                 : Version 4
File size                      : 6.44 GiB
Duration                       : 1 h 53 min
Overall bit rate               : 8 137 kb/s
Encoded date                   : UTC 2017-07-17 06:55:47
Writing application            : mkvmerge v11.0.0 ('Alive') 64bit
Writing library                : libebml v1.3.4 + libmatroska v1.4.5

Video
ID                             : 1
Format                         : HEVC
Format/Info                    : High Efficiency Video Coding
Format profile                 : Main [email protected]@Main
Codec ID                       : V_MPEGH/ISO/HEVC
Duration                       : 1 h 53 min
Bit rate                       : 7 335 kb/s
Width                          : 1 920 pixels
Height                         : 1 038 pixels
Display aspect ratio           : 1.85:1
Frame rate mode                : Constant
Frame rate                     : 24.000 FPS
Color space                    : YUV
Chroma subsampling             : 4:2:0
Bit depth                      : 10 bits
Bits/(Pixel*Frame)             : 0.153
Stream size                    : 5.81 GiB (90%)
Writing library                : x265 2.4+75-80c23559084c:[Windows][GCC 7.1.0][64 bit] 10bit
Encoding settings              : cpuid=1173503 / frame-threads=6 / numa-pools=36 / wpp / no-pmode / no-pme / no-psnr / no-ssim / log-level=2 / csvfn=D:\bdrip\brother.log / csv-log-level=0 / input-csp=1 / input-res=1920x1038 / interlace=0 / total-frames=163206 / level-idc=0 / high-tier=1 / uhd-bd=0 / ref=5 / no-allow-non-conformance / no-repeat-headers / annexb / no-aud / no-hrd / info / hash=0 / no-temporal-layers / no-open-gop / min-keyint=1 / keyint=360 / bframes=8 / b-adapt=2 / b-pyramid / bframe-bias=0 / rc-lookahead=60 / lookahead-slices=4 / scenecut=40 / no-intra-refresh / ctu=32 / min-cu-size=8 / no-rect / no-amp / max-tu-size=16 / tu-inter-depth=2 / tu-intra-depth=2 / limit-tu=3 / rdoq-level=2 / dynamic-rd=0.00 / ssim-rd / signhide / no-tskip / nr-intra=0 / nr-inter=0 / no-constrained-intra / no-strong-intra-smoothing / max-merge=3 / limit-refs=2 / limit-modes / me=3 / subme=5 / merange=25 / temporal-mvp / weightp / weightb / no-analyze-src-pics / deblock=-1:-1 / no-sao / no-sao-non-deblock / rd=4 / no-early-skip / no-rskip / no-fast-intra / no-tskip-fast / no-cu-lossless / b-intra / rdpenalty=1 / psy-rd=0.00 / psy-rdoq=5.00 / no-rd-refine / analysis-mode=0 / no-lossless / cbqpoffs=-2 / crqpoffs=-2 / rc=crf / crf=21.0 / qcomp=0.70 / qpstep=4 / stats-write=0 / stats-read=0 / ipratio=1.40 / pbratio=1.30 / aq-mode=1 / aq-strength=0.80 / cutree / zone-count=0 / no-strict-cbr / qg-size=16 / no-rc-grain / qpmax=69 / qpmin=0 / sar=0 / overscan=0 / videoformat=5 / range=0 / colorprim=1 / transfer=2 / colormatrix=2 / chromaloc=0 / display-window=0 / max-cll=0,0 / min-luma=0 / max-luma=1023 / log2-max-poc-lsb=8 / vui-timing-info / vui-hrd-info / slices=1 / opt-qp-pps / opt-ref-list-length-pps / no-multi-pass-opt-rps / scenecut-bias=0.05 / no-opt-cu-delta-qp / no-aq-motion / no-hdr / no-hdr-opt / no-dhdr10-opt / refine-level=5 / scale-factor=0 / refine-intra=0 / refine-inter=0 / refine-mv=0 / no-limit-sao / ctu-info=0
Default                        : Yes
Forced                         : No
Color range                    : Limited
Color primaries                : BT.709

Audio
ID                             : 2
Format                         : AC-3
Format/Info                    : Audio Coding 3
Commercial name                : Dolby Digital
Codec ID                       : A_AC3
Duration                       : 1 h 53 min
Bit rate mode                  : Constant
Bit rate                       : 640 kb/s
Channel(s)                     : 6 channels
Channel layout                 : L R C LFE Ls Rs
Sampling rate                  : 48.0 kHz
Frame rate                     : 31.250 FPS (1536 SPF)
Compression mode               : Lossy
Stream size                    : 519 MiB (8%)
Language                       : English
Service kind                   : Complete Main
Default                        : Yes
Forced                         : No

Text #1
ID                             : 3
Format                         : PGS
Muxing mode                    : zlib
Codec ID                       : S_HDMV/PGS
Codec ID/Info                  : Picture based subtitle format used on BDs/HD-DVDs
Language                       : Chinese
Default                        : Yes
Forced                         : No

Text #2
ID                             : 4
Format                         : PGS
Muxing mode                    : zlib
Codec ID                       : S_HDMV/PGS
Codec ID/Info                  : Picture based subtitle format used on BDs/HD-DVDs
Language                       : Chinese
Default                        : No
Forced                         : No

Text #3
ID                             : 5
Format                         : PGS
Muxing mode                    : zlib
Codec ID                       : S_HDMV/PGS
Codec ID/Info                  : Picture based subtitle format used on BDs/HD-DVDs
Language                       : English
Default                        : No
Forced                         : No

Menu
00:00:00.000                   : en:Chapter 01
00:04:46.000                   : en:Chapter 02
00:09:48.541                   : en:Chapter 03
00:15:12.875                   : en:Chapter 04
00:20:55.625                   : en:Chapter 05
00:27:58.041                   : en:Chapter 06
00:34:25.583                   : en:Chapter 07
00:43:21.916                   : en:Chapter 08
00:51:26.125                   : en:Chapter 09
00:58:47.291                   : en:Chapter 10
01:07:25.000                   : en:Chapter 11
01:14:04.625                   : en:Chapter 12
01:22:49.708                   : en:Chapter 13
01:32:15.083                   : en:Chapter 14
01:41:43.125                   : en:Chapter 15
01:48:46.500                   : en:Chapter 16


分享快乐!
回复

使用道具 举报

 
您需要登录后才可以回帖 登录 | 立即注册

本版积分规则

0关注

18粉丝

869帖子

广告位
经典RPG武侠手游,安卓首发。
  • 版块推荐
  • 百宝箱
推荐阅读更多+
会员达人更多+
  • e2302

    主题:0 积分:11445
  • LCC

    主题:0 积分:9628
  • reese

    主题:0 积分:9091
广告位
经典RPG武侠手游,安卓首发。

信息推荐

更多+

最新信息

更多+

加入我们!分享快乐!

人人为我,我为人人!抵制吸血和收费分享行为!

从我做起!

只分享高品质影视资源

只求质量、不求数量、不抢首发!

Email:[email protected]

DHTCLUB - 高品质影视资源分享俱乐部