开启左侧

疾速备战.John.Wick.Chapter.3.Parabellum.2019.BluRay.2160p.x265.10bit.HDR-DHTCLUB

[复制链接]
dhtclub 发表于 2021-2-15 21:37 | 显示全部楼层 |阅读模式 打印 上一主题 下一主题

疾速备战John Wick Chapter 3 Parabellum(2019)4K 

简介约翰·威克经历了前两次的追杀、特攻之后,由于执意破坏酒店规矩,因而遭到悬赏通缉,全球杀手闻风而至、一路追杀。这次他又将如何杀出重围,终结这场逃亡之旅。
导演查德·斯塔赫斯基
编剧德里克·科尔斯塔 / 谢伊·哈顿 / 克里斯·柯林斯 / 马克·艾布拉姆斯
类型动作 惊悚 罪案 
地区美国 
语言英语 
时长131分钟
资源大小24.8G
字幕语言内嵌简中 内嵌英语 内嵌简中英双语 
豆瓣评分7.8
豆瓣链接https://movie.douban.com/subject/26909790/
IMDB评分7.4
IMDB链接https://www.imdb.com/title/tt6146586/
演员表

疾速备战 的主要演员表……

基努·里维斯 / 哈莉·贝瑞 / 劳伦斯·菲什伯恩 / 安杰丽卡·休斯顿 / 伊恩·麦柯肖恩 / 马克·达卡斯考斯 / 艾莎·凯特·狄龙 / 兰斯·莱迪克 / 萨伊德·塔格马奥 / 杰罗姆·弗林 / 杰森·曼楚克斯 / 托拜厄斯·西格尔 / 博班·马里亚诺维奇 / 罗宾·泰勒 / 罗比·德拉费勒 / 费斯·洛根 / 雅彦·鲁伊安 / 兰德尔·杜克·金 / 袁之正 / 陈虎 / 安东尼·帕迪利亚 / 斯特凡尼娅·马卡洛娃 / 西尔维奥·西马克 / 马米·科西科 / 罗曼·米蒂齐扬 / 塞塞普·阿里夫·拉赫曼 / 安妮·比萨比亚 / 约翰·盖蒂尔
影片介绍

疾速备战 的剧情介绍……

约翰·威克经历了前两次的追杀、特攻之后,由于执意破坏酒店规矩,因而遭到悬赏通缉,全球杀手闻风而至、一路追杀。这次他又将如何杀出重围,终结这场逃亡之旅。
资源下载
1080i/p下载地址 点击查看
4K下载地址 点击查看
《疾速备战》下载帮助和注意事项:
1、本站所有资源均为磁力链资源,无需注册登录即可查看下载地址
2、使用迅雷或网盘离线是无法下载资源的!必须使用BT下载工具,如果没有下载速度请添加我们提供的tracker服务器列表
3、推荐BT下载工具:比特彗星qbittorrentutorrent 内网使用路由请做好端口映射或开启UPnP
4、不管选择哪种P2P下载工具,都希望你能在条件允许的前提下不要限速多做种分享上传一段时间
5、刻意限制P2P下载工具的上传速度(此行为俗称:吸血)将影响你的下载速度 防止被吸血和防止运营商过滤的教程
6、人人为我我为人人,只有大家不限制上传速度,大家才能共同获得更快的下载速度,这才是P2P应有的良性循环!
7、所有资源来源网络,本站服务器不存储任何种子文件,如侵犯您的权益,请联系 [email protected] 删除资源
点评&资源版本介绍
 
疾速备战 大海战2 硬核RTS海战游戏-画面党手残党慎入.jpg
General
Unique ID                      : 23336624097558699503793795034045382473 (0x118E786691025A0AAE928E3A4F1A7F49)
Format                         : Matroska
Format version                 : Version 4
File size                      : 24.7 GiB
Duration                       : 2 h 10 min
Overall bit rate mode          : Variable
Overall bit rate               : 27.0 Mb/s
Encoded date                   : UTC 2019-09-05 13:35:34
Writing application            : mkvmerge v20.0.0 ('I Am The Sun') 64-bit
Writing library                : libebml v1.3.5 + libmatroska v1.4.8

Video
ID                             : 1
Format                         : HEVC
Format/Info                    : High Efficiency Video Coding
Format profile                 : Main [email protected]@High
HDR format                     : SMPTE ST 2086, HDR10 compatible
Codec ID                       : V_MPEGH/ISO/HEVC
Duration                       : 2 h 10 min
Bit rate                       : 22.2 Mb/s
Width                          : 3 840 pixels
Height                         : 1 600 pixels
Display aspect ratio           : 2.40:1
Frame rate mode                : Constant
Frame rate                     : 23.976 (24000/1001) FPS
Color space                    : YUV
Chroma subsampling             : 4:2:0
Bit depth                      : 10 bits
Bits/(Pixel*Frame)             : 0.151
Stream size                    : 20.3 GiB (82%)
Writing library                : x265 3.1+2-g764455672+26:[Windows][GCC 8.3.0][64 bit] Yuuki 10bit+8bit+12bit
Encoding settings              : rc=crf / crf=19.0000 / qcomp=0.70 / qpstep=4 / stats-write=0 / stats-read=0 / vbv-maxrate=160000 / vbv-bufsize=160000 / vbv-init=0.9 / crf-max=0.0 / crf-min=0.0 / no-lossless / no-cu-lossless / aq-mode=3 / aq-strength=0.90 / cbqpoffs=-3 / crqpoffs=-3 / ipratio=1.40 / pbratio=1.30 / psy-rd=2.00 / psy-rdoq=3.00 / deblock=-1:-1 / ref=5 / limit-refs=0 / no-limit-modes / bframes=8 / b-adapt=2 / bframe-bias=0 / b-pyramid / b-intra / weightp / weightb / min-keyint=23 / max-keyint=240 / rc-lookahead=60 / gop-lookahead=0 / scenecut=40 / radl=0 / max-cu-size=32 / min-cu-size=8 / me=3 / subme=4 / merange=25 / rdoq-level=2 / rd=4 / rdpenalty=1 / dynamic-rd=0.00 / no-rd-refine / ----- / no-cutree / no-sao / no-rect / no-amp / no-open-gop / wpp / pmode / pme / no-psnr / no-ssim / nr-intra=0 / nr-inter=0 / no-constrained-intra / no-strong-intra-smoothing / max-tu-size=32 / tu-inter-depth=2 / tu-intra-depth=2 / limit-tu=0 / qg-size=32 / qpmax=69 / qpmin=0 / ----- / cpuid=1111039 / frame-threads=6 / numa-pools=54,- / log-level=2 / input-csp=1 / input-res=3840x1600 / interlace=0 / level-idc=0 / high-tier=1 / uhd-bd=0 / no-allow-non-conformance / no-repeat-headers / no-aud / hrd / info / hash=0 / no-temporal-layers / lookahead-slices=0 / no-splice / no-intra-refresh / no-ssim-rd / signhide / no-tskip / max-merge=3 / temporal-mvp / no-analyze-src-pics / no-sao-non-deblock / no-early-skip / no-rskip / no-fast-intra / no-tskip-fast / no-splitrd-skip / zone-count=0 / no-strict-cbr / no-rc-grain / no-const-vbv / sar=0 / overscan=0 / videoformat=5 / range=0 / colorprim=9 / transfer=16 / colormatrix=9 / chromaloc=0 / display-window=0 / master-display=G(13250,34500)B(7500,3000)R(34000,16000)WP(15635,16450)L(10000000,10)cll=1000,358 / min-luma=0 / max-luma=1023 / log2-max-poc-lsb=8 / vui-timing-info / vui-hrd-info / slices=1 / no-opt-qp-pps / no-opt-ref-list-length-pps / no-multi-pass-opt-rps / scenecut-bias=0.05 / no-opt-cu-delta-qp / no-aq-motion / hdr / hdr-opt / no-dhdr10-opt / no-idr-recovery-sei / analysis-reuse-level=5 / scale-factor=0 / refine-intra=0 / refine-inter=0 / refine-mv=0 / refine-ctu-distortion=0 / no-limit-sao / ctu-info=0 / no-lowpass-dct / refine-analysis-type=0 / copy-pic=1 / max-ausize-factor=1.0 / no-dynamic-refine / no-single-sei / no-hevc-aq / no-svt / no-field / qp-adaptation-range=1.00
Default                        : Yes
Forced                         : No
Color range                    : Limited
Color primaries                : BT.2020
Transfer characteristics       : PQ
Matrix coefficients            : BT.2020 non-constant
Mastering display color primar : Display P3
Mastering display luminance    : min: 0.0010 cd/m2, max: 1000 cd/m2
Maximum Content Light Level    : 1000 cd/m2
Maximum Frame-Average Light Le : 358 cd/m2

Audio #1
ID                             : 2
Format                         : MLP FBA 16-ch
Format/Info                    : Meridian Lossless Packing FBA with 16-channel presentation
Commercial name                : Dolby TrueHD with Dolby Atmos
Codec ID                       : A_TRUEHD
Duration                       : 2 h 10 min
Bit rate mode                  : Variable
Bit rate                       : 4 012 kb/s
Maximum bit rate               : 6 327 kb/s
Channel(s)                     : 8 channels
Channel layout                 : L R C LFE Ls Rs Lb Rb
Sampling rate                  : 48.0 kHz
Frame rate                     : 1 200.000 FPS (40 SPF)
Compression mode               : Lossless
Delay relative to video        : 9 ms
Stream size                    : 3.66 GiB (15%)
Title                          : TrueHD
Language                       : English
Default                        : Yes
Forced                         : No
Number of dynamic objects      : 15
Bed channel count              : 1 channel
Bed channel configuration      : LFE

Audio #2
ID                             : 3
Format                         : AC-3
Format/Info                    : Audio Coding 3
Commercial name                : Dolby Digital
Codec ID                       : A_AC3
Duration                       : 2 h 10 min
Bit rate mode                  : Constant
Bit rate                       : 640 kb/s
Channel(s)                     : 6 channels
Channel layout                 : L R C LFE Ls Rs
Sampling rate                  : 48.0 kHz
Frame rate                     : 31.250 FPS (1536 SPF)
Compression mode               : Lossy
Stream size                    : 599 MiB (2%)
Title                          : AC-3
Language                       : English
Service kind                   : Complete Main
Default                        : No
Forced                         : No

Text #1
ID                             : 4
Format                         : PGS
Muxing mode                    : zlib
Codec ID                       : S_HDMV/PGS
Codec ID/Info                  : Picture based subtitle format used on BDs/HD-DVDs
Duration                       : 2 h 0 min
Bit rate                       : 22.1 kb/s
Count of elements              : 2042
Stream size                    : 19.1 MiB (0%)
Title                          : 英文SDH
Language                       : English
Default                        : Yes
Forced                         : No

Text #2
ID                             : 5
Format                         : PGS
Muxing mode                    : zlib
Codec ID                       : S_HDMV/PGS
Codec ID/Info                  : Picture based subtitle format used on BDs/HD-DVDs
Duration                       : 2 h 10 min
Bit rate                       : 55.6 kb/s
Count of elements              : 4562
Stream size                    : 51.9 MiB (0%)
Title                          : 简中特效
Language                       : Chinese
Default                        : No
Forced                         : No

Text #3
ID                             : 6
Format                         : PGS
Muxing mode                    : zlib
Codec ID                       : S_HDMV/PGS
Codec ID/Info                  : Picture based subtitle format used on BDs/HD-DVDs
Duration                       : 2 h 10 min
Bit rate                       : 63.6 kb/s
Count of elements              : 4562
Stream size                    : 59.4 MiB (0%)
Title                          : 双语特效
Language                       : Chinese
Default                        : No
Forced                         : No

Menu
00:00:00.000                   : en:Chapter 01
00:08:46.860                   : en:Chapter 02
00:14:06.763                   : en:Chapter 03
00:22:40.401                   : en:Chapter 04
00:31:26.301                   : en:Chapter 05
00:37:51.311                   : en:Chapter 06
00:47:43.319                   : en:Chapter 07
00:57:09.176                   : en:Chapter 08
01:02:56.439                   : en:Chapter 09
01:14:27.672                   : en:Chapter 10
01:20:36.665                   : en:Chapter 11
01:28:48.365                   : en:Chapter 12
01:33:51.793                   : en:Chapter 13
01:41:31.794                   : en:Chapter 14
01:53:44.651                   : en:Chapter 15
01:59:51.434                   : en:Chapter 16


分享快乐!
回复

使用道具 举报

 

精彩评论1

正序浏览
wuqing916 发表于 2021-10-18 01:52 | 显示全部楼层
 
好戲....大力推介, 必看好電影
分享快乐!
回复

使用道具 举报

 
您需要登录后才可以回帖 登录 | 立即注册

本版积分规则

0关注

18粉丝

869帖子

广告位
经典RPG武侠手游,安卓首发。
  • 版块推荐
  • 百宝箱
推荐阅读更多+
会员达人更多+
  • e2302

    主题:0 积分:11445
  • LCC

    主题:0 积分:9628
  • reese

    主题:0 积分:9091
广告位
经典RPG武侠手游,安卓首发。

信息推荐

更多+

最新信息

更多+

加入我们!分享快乐!

人人为我,我为人人!抵制吸血和收费分享行为!

从我做起!

只分享高品质影视资源

只求质量、不求数量、不抢首发!

Email:[email protected]

DHTCLUB - 高品质影视资源分享俱乐部