开启左侧

夜宴.The.Banquet.2006.BluRay.1080p.x265.10bit-DHTCLUB

[复制链接]
dhtclub 发表于 2021-2-15 21:59 | 显示全部楼层 |阅读模式 打印 上一主题 下一主题

夜宴The Banquet(2010~2006)1080P 

简介五代十国,纷纷扰扰,争斗不休。
  先帝离奇驾崩,厉帝(葛优 饰)篡位,把先帝美丽的皇后(章子怡 饰)占为己有。皇后为求自保,惟有奉承于厉帝膝下。然而,她的心中有着更大的,不为人知的野心。
  太子(吴彦祖 饰)是先帝的儿子,亡父之痛让他决心放弃艺术家的生活,开始了复仇之路。然而,犹豫不决的天性让他在复仇路上走得伤痕累累,作为后母的皇后更是 让他充满了感情的纠缠。
  青女(周迅 饰)已被许为太子的妻子,她对太子痴心不二,最后却断送了青春年华。青女哥哥(黄晓明 饰)年轻气盛,与妹妹感情甚笃,深深陷入了这场斗争。
  这天,厉帝开设夜宴,众人出席,暗涌翻滚,杀机四伏。
导演冯小刚
编剧邱刚健 / 盛和煜
类型动作 剧情 古装 武侠 
地区中国内地 中国香港 
语言普通话 
时长131分钟
资源大小5G
字幕语言内嵌简中 内嵌繁中 内嵌英语 
豆瓣评分5.9
豆瓣链接https://movie.douban.com/subject/1418605/
IMDB评分6.4
IMDB链接https://www.imdb.com/title/tt0465676
演员表

夜宴 的主要演员表……

章子怡 / 葛优 / 吴彦祖 / 周迅 / 马精武 / 黄晓明 / 周中和 / 曾秋生 / 徐熙颜 / 刘燕斌 / 马仑 / 项斌 / 郑春雨
影片介绍

夜宴 的剧情介绍……

五代十国,纷纷扰扰,争斗不休。
  先帝离奇驾崩,厉帝(葛优 饰)篡位,把先帝美丽的皇后(章子怡 饰)占为己有。皇后为求自保,惟有奉承于厉帝膝下。然而,她的心中有着更大的,不为人知的野心。
  太子(吴彦祖 饰)是先帝的儿子,亡父之痛让他决心放弃艺术家的生活,开始了复仇之路。然而,犹豫不决的天性让他在复仇路上走得伤痕累累,作为后母的皇后更是 让他充满了感情的纠缠。
  青女(周迅 饰)已被许为太子的妻子,她对太子痴心不二,最后却断送了青春年华。青女哥哥(黄晓明 饰)年轻气盛,与妹妹感情甚笃,深深陷入了这场斗争。
  这天,厉帝开设夜宴,众人出席,暗涌翻滚,杀机四伏。
资源下载
1080i/p下载地址 点击查看
4K下载地址 点击查看
《夜宴》下载帮助和注意事项:
1、本站所有资源均为磁力链资源,无需注册登录即可查看下载地址
2、使用迅雷或网盘离线是无法下载资源的!必须使用BT下载工具,如果没有下载速度请添加我们提供的tracker服务器列表
3、推荐BT下载工具:比特彗星qbittorrentutorrent 内网使用路由请做好端口映射或开启UPnP
4、不管选择哪种P2P下载工具,都希望你能在条件允许的前提下不要限速多做种分享上传一段时间
5、刻意限制P2P下载工具的上传速度(此行为俗称:吸血)将影响你的下载速度 防止被吸血和防止运营商过滤的教程
6、人人为我我为人人,只有大家不限制上传速度,大家才能共同获得更快的下载速度,这才是P2P应有的良性循环!
7、所有资源来源网络,本站服务器不存储任何种子文件,如侵犯您的权益,请联系 [email protected] 删除资源
点评&资源版本介绍
 
夜宴 大海战2 硬核RTS海战游戏-画面党手残党慎入.jpg
General
Unique ID                      : 217766174152749314879541398562866149315 (0xA3D43D544C687B1098718FCBFB2737C3)
Format                         : Matroska
Format version                 : Version 4
File size                      : 4.94 GiB
Duration                       : 2 h 10 min
Overall bit rate               : 5 406 kb/s
Encoded date                   : UTC 2016-06-30 01:53:25
Writing application            : mkvmerge v9.1.0 ('Little Earthquakes') 32bit
Writing library                : libebml v1.3.3 + libmatroska v1.4.4

Video
ID                             : 1
Format                         : HEVC
Format/Info                    : High Efficiency Video Coding
Format profile                 : Main [email protected]@Main
Codec ID                       : V_MPEGH/ISO/HEVC
Duration                       : 2 h 10 min
Bit rate                       : 4 658 kb/s
Width                          : 1 920 pixels
Height                         : 1 080 pixels
Display aspect ratio           : 16:9
Frame rate mode                : Constant
Frame rate                     : 24.000 FPS
Color space                    : YUV
Chroma subsampling             : 4:2:0
Bit depth                      : 10 bits
Bits/(Pixel*Frame)             : 0.094
Stream size                    : 4.25 GiB (86%)
Writing library                : x265 1.9+200-6098ba3e0cf16b11:[Windows][GCC 5.3.0][64 bit] 10bit
Encoding settings              : wpp / ctu=32 / min-cu-size=8 / max-tu-size=16 / tu-intra-depth=2 / tu-inter-depth=2 / me=3 / subme=5 / merange=28 / no-rect / no-amp / max-merge=3 / temporal-mvp / no-early-skip / no-recursion-skip / rdpenalty=1 / no-tskip / no-tskip-fast / no-strong-intra-smoothing / no-lossless / no-cu-lossless / no-constrained-intra / no-fast-intra / no-open-gop / no-temporal-layers / interlace=0 / keyint=360 / min-keyint=1 / scenecut=40 / rc-lookahead=60 / lookahead-slices=4 / bframes=8 / bframe-bias=0 / b-adapt=2 / ref=5 / limit-refs=3 / limit-modes / weightp / weightb / aq-mode=1 / qg-size=16 / aq-strength=1.00 / cbqpoffs=0 / crqpoffs=0 / rd=4 / psy-rd=0.30 / rdoq-level=1 / psy-rdoq=5.00 / no-rd-refine / signhide / deblock=-1:-1 / no-sao / no-sao-non-deblock / b-pyramid / no-cutree / no-intra-refresh / rc=crf / crf=20.0 / qcomp=0.70 / qpmin=0 / qpmax=51 / qpstep=4 / ipratio=1.40 / pbratio=1.30
Default                        : Yes
Forced                         : No
Color range                    : Limited
Color primaries                : BT.709

Audio
ID                             : 2
Format                         : AC-3
Format/Info                    : Audio Coding 3
Commercial name                : Dolby Digital
Codec ID                       : A_AC3
Duration                       : 2 h 10 min
Bit rate mode                  : Constant
Bit rate                       : 640 kb/s
Channel(s)                     : 6 channels
Channel layout                 : L R C LFE Ls Rs
Sampling rate                  : 48.0 kHz
Frame rate                     : 31.250 FPS (1536 SPF)
Compression mode               : Lossy
Stream size                    : 598 MiB (12%)
Language                       : Chinese
Service kind                   : Complete Main
Default                        : Yes
Forced                         : No

Text #1
ID                             : 3
Format                         : PGS
Muxing mode                    : zlib
Codec ID                       : S_HDMV/PGS
Codec ID/Info                  : Picture based subtitle format used on BDs/HD-DVDs
Language                       : Chinese
Default                        : Yes
Forced                         : No

Text #2
ID                             : 4
Format                         : PGS
Muxing mode                    : zlib
Codec ID                       : S_HDMV/PGS
Codec ID/Info                  : Picture based subtitle format used on BDs/HD-DVDs
Language                       : Chinese
Default                        : No
Forced                         : No

Text #3
ID                             : 5
Format                         : PGS
Muxing mode                    : zlib
Codec ID                       : S_HDMV/PGS
Codec ID/Info                  : Picture based subtitle format used on BDs/HD-DVDs
Language                       : English
Default                        : No
Forced                         : No

Menu
00:00:00.000                   : en:Chapter 01
00:09:35.958                   : en:Chapter 02
00:18:20.000                   : en:Chapter 03
00:32:15.541                   : en:Chapter 04
00:42:10.708                   : en:Chapter 05
00:54:34.458                   : en:Chapter 06
01:02:07.791                   : en:Chapter 07
01:15:24.791                   : en:Chapter 08
01:24:03.166                   : en:Chapter 09
01:35:19.875                   : en:Chapter 10
01:42:41.458                   : en:Chapter 11
01:53:38.125                   : en:Chapter 12
02:02:25.958                   : en:Chapter 13
02:08:02.791                   : en:Chapter 14


分享快乐!
回复

使用道具 举报

 
您需要登录后才可以回帖 登录 | 立即注册

本版积分规则

0关注

18粉丝

869帖子

广告位
经典RPG武侠手游,安卓首发。
  • 版块推荐
  • 百宝箱
推荐阅读更多+
会员达人更多+
  • e2302

    主题:0 积分:11445
  • LCC

    主题:0 积分:9628
  • reese

    主题:0 积分:9091
广告位
经典RPG武侠手游,安卓首发。

信息推荐

更多+

最新信息

更多+

加入我们!分享快乐!

人人为我,我为人人!抵制吸血和收费分享行为!

从我做起!

只分享高品质影视资源

只求质量、不求数量、不抢首发!

Email:[email protected]

DHTCLUB - 高品质影视资源分享俱乐部