开启左侧

风味人间.第二季.Once.Upon.a.Bite.2020.S02.2160p.WEB-DL.H265.AAC-DHTCLUB

[复制链接]
dhtclub 发表于 2021-2-18 10:03 | 显示全部楼层 |阅读模式 打印 上一主题 下一主题

风味人间 第二季购买VIP查看下载地址(2020)4K 

简介因为地理环境、文明历程和物产丰厚程度不尽相同,人们对食物的处理时而天差地别,时而异曲同工。不约而同的选择,造就世界的丰富多彩和殊途同归。
  《风味人间》第2季,共8集,从全世界的角度出发,在特色鲜明的美食之中找出千丝万缕的联系。探究相同食材的不同做法、不同食材的相同做法、不同做法的相似味道。寻找新鲜、猎奇、少为人知的食材;提供趣味和知识,不断创造意外之喜;拍摄鲜活灵动的影像、采用故事化的叙事、进行平实亲切的讲述。
导演陈晓卿 / 李勇
编剧李立宏
类型美食 
地区中国内地 
语言普通话 
集数8集
资源大小16.7G
字幕语言内嵌简中 
豆瓣评分9.1
豆瓣链接https://movie.douban.com/subject/35014718/
IMDB评分升级VIP查看密码
IMDB链接https://www.imdb.com/title/tt12057382/
演员表

风味人间 第二季 的主要演员表……

未知
影片介绍

风味人间 第二季 的剧情介绍……

因为地理环境、文明历程和物产丰厚程度不尽相同,人们对食物的处理时而天差地别,时而异曲同工。不约而同的选择,造就世界的丰富多彩和殊途同归。
  《风味人间》第2季,共8集,从全世界的角度出发,在特色鲜明的美食之中找出千丝万缕的联系。探究相同食材的不同做法、不同食材的相同做法、不同做法的相似味道。寻找新鲜、猎奇、少为人知的食材;提供趣味和知识,不断创造意外之喜;拍摄鲜活灵动的影像、采用故事化的叙事、进行平实亲切的讲述。
资源下载
1080i/p下载地址 点击查看
4K下载地址 点击查看
《风味人间 第二季》下载帮助和注意事项:
1、本站所有资源均为磁力链资源,无需注册登录即可查看下载地址
2、使用迅雷或网盘离线是无法下载资源的!必须使用BT下载工具,如果没有下载速度请添加我们提供的tracker服务器列表
3、推荐BT下载工具:比特彗星qbittorrentutorrent 内网使用路由请做好端口映射或开启UPnP
4、不管选择哪种P2P下载工具,都希望你能在条件允许的前提下不要限速多做种分享上传一段时间
5、刻意限制P2P下载工具的上传速度(此行为俗称:吸血)将影响你的下载速度 防止被吸血和防止运营商过滤的教程
6、人人为我我为人人,只有大家不限制上传速度,大家才能共同获得更快的下载速度,这才是P2P应有的良性循环!
7、所有资源来源网络,本站服务器不存储任何种子文件,如侵犯您的权益,请联系 [email protected] 删除资源
点评&资源版本介绍
 
风味人间.第二季.E01 大海战2 硬核RTS海战游戏-画面党手残党慎入.jpg
General
Format                         : MPEG-4
Format profile                 : Base Media
Codec ID                       : isom (isom/iso2/mp41)
File size                      : 2.03 GiB
Duration                       : 51 min 3 s
Overall bit rate               : 5 681 kb/s
Writing application            : Lavf58.27.103

Video
ID                             : 1
Format                         : HEVC
Format/Info                    : High Efficiency Video Coding
Format profile                 : [email protected]@Main
Codec ID                       : hev1
Codec ID/Info                  : High Efficiency Video Coding
Duration                       : 51 min 3 s
Bit rate                       : 5 546 kb/s
Width                          : 3 840 pixels
Height                         : 2 160 pixels
Display aspect ratio           : 16:9
Frame rate mode                : Variable
Frame rate                     : 25.000 FPS
Minimum frame rate             : 24.993 FPS
Maximum frame rate             : 25.007 FPS
Color space                    : YUV
Chroma subsampling             : 4:2:0
Bit depth                      : 8 bits
Bits/(Pixel*Frame)             : 0.027
Stream size                    : 1.98 GiB (98%)
Color range                    : Limited
Color primaries                : BT.709
Transfer characteristics       : BT.709
Matrix coefficients            : BT.709
Codec configuration box        : hvcC

Audio
ID                             : 2
Format                         : AAC LC
Format/Info                    : Advanced Audio Codec Low Complexity
Codec ID                       : mp4a-40-2
Duration                       : 51 min 3 s
Bit rate mode                  : Constant
Bit rate                       : 128 kb/s
Channel(s)                     : 2 channels
Channel layout                 : L R
Sampling rate                  : 48.0 kHz
Frame rate                     : 46.875 FPS (1024 SPF)
Compression mode               : Lossy
Stream size                    : 46.8 MiB (2%)
Default                        : Yes
Alternate group                : 1


分享快乐!
回复

使用道具 举报

 
您需要登录后才可以回帖 登录 | 立即注册

本版积分规则

0关注

11粉丝

838帖子

广告位
经典RPG武侠手游,安卓首发。
  • 版块推荐
  • 百宝箱
推荐阅读更多+
会员达人更多+
广告位
经典RPG武侠手游,安卓首发。

信息推荐

更多+

最新信息

更多+

加入我们!分享快乐!

人人为我,我为人人!抵制吸血和收费分享行为!

从我做起!

只分享高品质影视资源

只求质量、不求数量、不抢首发!

Email:[email protected]

DHTCLUB - 高品质影视资源分享俱乐部