开启左侧

铁齿铜牙纪晓岚4.The.Bronze.Teeth.IV.2009.WEB-DL.1080p.H264.AAC-DHTCLUB

[复制链接]
dhtclub 发表于 2021-2-25 07:30 | 显示全部楼层 |阅读模式 打印 上一主题 下一主题

铁齿铜牙纪晓岚4购买VIP查看下载地址(2010~2006)1080P 

简介《铁齿铜牙纪晓岚4》由“小月归来”、“拉大旗做虎皮”、“笔谈奇案”、“人在草木中”和“忠义祠”五个单元故事组成。围绕秉公执法的睿智才子纪晓岚(张国立饰)、打造“康乾盛世”的一代君主乾隆(张铁林饰)和唯利是图、贪赃枉法的和珅(王刚饰),君臣三人再次上演一幕幕令人忍俊不禁却发人深省的人间悲喜剧。
  由“铁三角”张铁林、张国立、王刚主演的系列电视剧《铁齿铜牙纪晓岚》,至2009年已发行四部。作为该系列电视剧的第四部,本剧集不仅有剧中扮演杜小月的袁立回归,还有香港女星杨千嬅、著名笑星闫妮和著名节目主持人刘仪伟等众多影视剧明星亲情加盟。
导演罗长安
编剧邹静之 / 陈文贵 / 汪海林
类型喜剧 剧情 古装 
地区中国内地 
语言普通话 
集数42集
资源大小68.1G
字幕语言内嵌简中 
豆瓣评分7.6
豆瓣链接https://movie.douban.com/subject/3348328/
IMDB评分6.4
IMDB链接https://www.imdb.com/title/tt7172718
演员表

铁齿铜牙纪晓岚4 的主要演员表……

张国立 / 王刚 / 张铁林 / 袁立 / 杨千嬅 / 闫妮 / 韩雨芹
影片介绍

铁齿铜牙纪晓岚4 的剧情介绍……

《铁齿铜牙纪晓岚4》由“小月归来”、“拉大旗做虎皮”、“笔谈奇案”、“人在草木中”和“忠义祠”五个单元故事组成。围绕秉公执法的睿智才子纪晓岚(张国立饰)、打造“康乾盛世”的一代君主乾隆(张铁林饰)和唯利是图、贪赃枉法的和珅(王刚饰),君臣三人再次上演一幕幕令人忍俊不禁却发人深省的人间悲喜剧。
  由“铁三角”张铁林、张国立、王刚主演的系列电视剧《铁齿铜牙纪晓岚》,至2009年已发行四部。作为该系列电视剧的第四部,本剧集不仅有剧中扮演杜小月的袁立回归,还有香港女星杨千嬅、著名笑星闫妮和著名节目主持人刘仪伟等众多影视剧明星亲情加盟。
资源下载
1080i/p下载地址 点击查看
4K下载地址 点击查看
《铁齿铜牙纪晓岚4》下载帮助和注意事项:
1、本站所有资源均为磁力链资源,无需注册登录即可查看下载地址
2、使用迅雷或网盘离线是无法下载资源的!必须使用BT下载工具,如果没有下载速度请添加我们提供的tracker服务器列表
3、推荐BT下载工具:比特彗星qbittorrentutorrent 内网使用路由请做好端口映射或开启UPnP
4、不管选择哪种P2P下载工具,都希望你能在条件允许的前提下不要限速多做种分享上传一段时间
5、刻意限制P2P下载工具的上传速度(此行为俗称:吸血)将影响你的下载速度 防止被吸血和防止运营商过滤的教程
6、人人为我我为人人,只有大家不限制上传速度,大家才能共同获得更快的下载速度,这才是P2P应有的良性循环!
7、所有资源来源网络,本站服务器不存储任何种子文件,如侵犯您的权益,请联系 [email protected] 删除资源
点评&资源版本介绍
 
铁齿铜牙纪晓岚4.E01 大海战2 硬核RTS海战游戏-画面党手残党慎入.jpg
General
Format                         : MPEG-4
Format profile                 : Base Media
Codec ID                       : isom (isom/iso2/avc1/mp41)
File size                      : 1.62 GiB
Duration                       : 45 min 5 s
Overall bit rate               : 5 140 kb/s
Writing application            : Lavf56.15.102

Video
ID                             : 1
Format                         : AVC
Format/Info                    : Advanced Video Codec
Format profile                 : [email protected]
Format settings                : CABAC / 4 Ref Frames
Format settings, CABAC         : Yes
Format settings, Reference fra : 4 frames
Codec ID                       : avc1
Codec ID/Info                  : Advanced Video Coding
Duration                       : 45 min 4 s
Bit rate                       : 5 001 kb/s
Width                          : 1 920 pixels
Height                         : 1 072 pixels
Display aspect ratio           : 16:9
Original display aspect ratio  : 16:9
Frame rate mode                : Constant
Frame rate                     : 25.000 FPS
Color space                    : YUV
Chroma subsampling             : 4:2:0
Bit depth                      : 8 bits
Scan type                      : Progressive
Bits/(Pixel*Frame)             : 0.097
Stream size                    : 1.57 GiB (97%)
Writing library                : Provided by
Codec configuration box        : avcC

Audio
ID                             : 2
Format                         : AAC LC
Format/Info                    : Advanced Audio Codec Low Complexity
Codec ID                       : mp4a-40-2
Duration                       : 45 min 5 s
Duration_LastFrame             : -16 ms
Bit rate mode                  : Constant
Bit rate                       : 128 kb/s
Channel(s)                     : 2 channels
Channel layout                 : L R
Sampling rate                  : 44.1 kHz
Frame rate                     : 43.066 FPS (1024 SPF)
Compression mode               : Lossy
Stream size                    : 41.3 MiB (2%)
Default                        : Yes
Alternate group                : 1


分享快乐!
回复

使用道具 举报

 
您需要登录后才可以回帖 登录 | 立即注册

本版积分规则

0关注

14粉丝

856帖子

广告位
经典RPG武侠手游,安卓首发。
  • 版块推荐
  • 百宝箱
会员达人更多+
  • e2302

    主题:0 积分:11347
  • reese

    主题:0 积分:8396
  • powwow

    主题:0 积分:3294
广告位
经典RPG武侠手游,安卓首发。

信息推荐

更多+

最新信息

更多+

加入我们!分享快乐!

人人为我,我为人人!抵制吸血和收费分享行为!

从我做起!

只分享高品质影视资源

只求质量、不求数量、不抢首发!

Email:[email protected]

DHTCLUB - 高品质影视资源分享俱乐部