开启左侧

狙击电话亭.Phone.Booth.2002.1080p.BluRay.x264.DTS.2Audio-DHTCLUB

[复制链接]
dhtclub 发表于 2021-2-27 09:58 | 显示全部楼层 |阅读模式 打印 上一主题 下一主题

狙击电话亭Phone Booth(2005~2000)1080P 

简介公关人员斯图(柯林•法瑞尔 Colin Farrell 饰)在外面瞒着妻子有一个秘密情人,为了躲避妻子的电话单检查,这天他又偷偷溜到街上公用电话亭准备打电话约会情人。不料,在他进入电话亭的一刹那,电话铃响了。虽然不知是谁打的电话,出于习惯,斯图拿起了听筒。
  阴沉单调的男 声随即响起,警告斯图不要挂掉,否则将血溅街头!斯图当然没有理会这恶作剧般的警告,正要走出电话亭。这时,一声枪响,一名路人已经倒在地上。斯图吓得魂飞魄散,动也不敢动。
  警察闻讯而来,然而他们对斯图的解释怎么也不相信,斯图还成了枪击案的主要嫌疑人。一时间,全城轰动,斯图的妻子和情人都闻讯赶来了…
导演乔·舒马赫
编剧拉里·柯恩
类型惊悚 罪案 
地区美国 
语言普通话 英语 
时长81分钟
资源大小10.1G
字幕语言内嵌简中 内嵌繁中 内嵌英语 内嵌简中英双语 
豆瓣评分7.9
豆瓣链接https://movie.douban.com/subject/1303246/
IMDB评分7.0
IMDB链接https://www.imdb.com/title/tt0183649
演员表

狙击电话亭 的主要演员表……

科林·法瑞尔 / 基弗·萨瑟兰 / 福里斯特·惠特克 / 拉达·米切尔 / 凯蒂·霍尔姆斯 / 保拉·杰·帕克 / 蒂娅·德克萨达 / 约翰·伊诺斯三世 / 理查德·琼斯 / 基斯·诺布斯 / 乔什·帕斯 / 约戈·康斯坦丁 / 科林·帕特里克·林奇 / Troy Gilbert / 塞思·威廉·迈耶 / 斯韦特兰娜·埃弗里莫娃 / 多米尼克·隆巴多兹 / 麦丽·弗拉纳甘 / 胡里奥·奥斯卡·门乔索 / Dean Cochran / 托利·基特尔斯 / Bruce Roberts / 玛丽·兰德尔 / Phil Paul Call / 米娅·柯泰特 / 本·福斯特 / Enrique Hernandez / Jared Huckaby / Chris Huvane / Arian Waring Ash / 乔什·卡尔夫 / 詹姆斯·马迪欧 / 丹尼尔·曼德尔 / James MacDonald / Dell Yount
影片介绍

狙击电话亭 的剧情介绍……

公关人员斯图(柯林•法瑞尔 Colin Farrell 饰)在外面瞒着妻子有一个秘密情人,为了躲避妻子的电话单检查,这天他又偷偷溜到街上公用电话亭准备打电话约会情人。不料,在他进入电话亭的一刹那,电话铃响了。虽然不知是谁打的电话,出于习惯,斯图拿起了听筒。
  阴沉单调的男 声随即响起,警告斯图不要挂掉,否则将血溅街头!斯图当然没有理会这恶作剧般的警告,正要走出电话亭。这时,一声枪响,一名路人已经倒在地上。斯图吓得魂飞魄散,动也不敢动。
  警察闻讯而来,然而他们对斯图的解释怎么也不相信,斯图还成了枪击案的主要嫌疑人。一时间,全城轰动,斯图的妻子和情人都闻讯赶来了…
资源下载
1080i/p下载地址 点击查看
4K下载地址 点击查看
《狙击电话亭》下载帮助和注意事项:
1、本站所有资源均为磁力链资源,无需注册登录即可查看下载地址
2、使用迅雷或网盘离线是无法下载资源的!必须使用BT下载工具,如果没有下载速度请添加我们提供的tracker服务器列表
3、推荐BT下载工具:比特彗星qbittorrentutorrent 内网使用路由请做好端口映射或开启UPnP
4、不管选择哪种P2P下载工具,都希望你能在条件允许的前提下不要限速多做种分享上传一段时间
5、刻意限制P2P下载工具的上传速度(此行为俗称:吸血)将影响你的下载速度 防止被吸血和防止运营商过滤的教程
6、人人为我我为人人,只有大家不限制上传速度,大家才能共同获得更快的下载速度,这才是P2P应有的良性循环!
7、所有资源来源网络,本站服务器不存储任何种子文件,如侵犯您的权益,请联系 [email protected] 删除资源
点评&资源版本介绍
 
狙击电话亭 大海战2 硬核RTS海战游戏-画面党手残党慎入.jpg
General
Unique ID                      : 78503510092274653199798213853913557445 (0x3B0F39E08CFA89AABC5DD710902C29C5)
Format                         : Matroska
Format version                 : Version 4
File size                      : 10.0 GiB
Duration                       : 1 h 21 min
Overall bit rate               : 17.7 Mb/s
Movie name                     : Phone.Booth.2002.1080p.BluRay.x264.DTS.2Audio-19977
Encoded date                   : UTC 2020-06-28 08:26:35
Writing application            : mkvmerge v40.0.0 ('Old Town Road + Pony') 64-bit
Writing library                : libebml v1.3.9 + libmatroska v1.5.2
Cover                          : Yes
Attachments                    : cover_land.jpg / small_cover.jpg / small_cover_land.jpg / cover.jpg

Video
ID                             : 1
Format                         : AVC
Format/Info                    : Advanced Video Codec
Format profile                 : [email protected]
Format settings                : CABAC / 5 Ref Frames
Format settings, CABAC         : Yes
Format settings, Reference fra : 5 frames
Codec ID                       : V_MPEG4/ISO/AVC
Duration                       : 1 h 21 min
Bit rate                       : 16.0 Mb/s
Width                          : 1 920 pixels
Height                         : 814 pixels
Display aspect ratio           : 2.35:1
Frame rate mode                : Constant
Frame rate                     : 23.976 (24000/1001) FPS
Color space                    : YUV
Chroma subsampling             : 4:2:0
Bit depth                      : 8 bits
Scan type                      : Progressive
Bits/(Pixel*Frame)             : 0.427
Stream size                    : 9.05 GiB (90%)
Language                       : English
Default                        : Yes
Forced                         : No

Audio #1
ID                             : 2
Format                         : DTS
Format/Info                    : Digital Theater Systems
Codec ID                       : A_DTS
Duration                       : 1 h 21 min
Bit rate mode                  : Constant
Bit rate                       : 1 509 kb/s
Channel(s)                     : 6 channels
Channel layout                 : C L R Ls Rs LFE
Sampling rate                  : 48.0 kHz
Frame rate                     : 93.750 FPS (512 SPF)
Bit depth                      : 24 bits
Compression mode               : Lossy
Stream size                    : 874 MiB (9%)
Title                          : 英文原声
Language                       : English
Default                        : Yes
Forced                         : No

Audio #2
ID                             : 3
Format                         : AC-3
Format/Info                    : Audio Coding 3
Commercial name                : Dolby Digital
Codec ID                       : A_AC3
Duration                       : 1 h 21 min
Bit rate mode                  : Constant
Bit rate                       : 192 kb/s
Channel(s)                     : 2 channels
Channel layout                 : L R
Sampling rate                  : 48.0 kHz
Frame rate                     : 31.250 FPS (1536 SPF)
Compression mode               : Lossy
Stream size                    : 111 MiB (1%)
Title                          : 央视国语
Language                       : Chinese
Service kind                   : Complete Main
Default                        : No
Forced                         : No

Text #1
ID                             : 4
Format                         : UTF-8
Codec ID                       : S_TEXT/UTF8
Codec ID/Info                  : UTF-8 Plain Text
Duration                       : 1 h 18 min
Bit rate                       : 96 b/s
Count of elements              : 1258
Stream size                    : 55.6 KiB (0%)
Title                          : 简体中文
Language                       : Chinese
Default                        : Yes
Forced                         : Yes

Text #2
ID                             : 5
Format                         : UTF-8
Codec ID                       : S_TEXT/UTF8
Codec ID/Info                  : UTF-8 Plain Text
Duration                       : 1 h 18 min
Bit rate                       : 96 b/s
Count of elements              : 1258
Stream size                    : 55.3 KiB (0%)
Title                          : 繁体中文
Language                       : Chinese
Default                        : No
Forced                         : No

Text #3
ID                             : 6
Format                         : UTF-8
Codec ID                       : S_TEXT/UTF8
Codec ID/Info                  : UTF-8 Plain Text
Duration                       : 1 h 12 min
Bit rate                       : 107 b/s
Count of elements              : 1255
Stream size                    : 57.3 KiB (0%)
Title                          : 英文字幕
Language                       : English
Default                        : No
Forced                         : No

Text #4
ID                             : 7
Format                         : UTF-8
Codec ID                       : S_TEXT/UTF8
Codec ID/Info                  : UTF-8 Plain Text
Duration                       : 1 h 14 min
Bit rate                       : 206 b/s
Count of elements              : 1264
Stream size                    : 113 KiB (0%)
Title                          : 中英对照
Language                       : Chinese
Default                        : No
Forced                         : No

Menu
00:00:00.000                   : en:The Last Phone Booth
00:03:42.972                   : en:The Publicist
00:08:58.454                   : en:A Free Pizza
00:10:20.369                   : enam
00:11:45.955                   : en:The Caller
00:14:05.594                   : en:Exposed
00:17:34.386                   : en:Kelly
00:21:19.319                   : enon't Hang Up
00:23:22.359                   : en:The Others
00:25:01.416                   : eneon's Girls
00:29:00.947                   : en:Guilty
00:32:00.627                   : en:The Cops
00:34:57.762                   : en:Captain Ramey
00:39:19.440                   : en:The Center of Attention
00:43:10.296                   : en:The Cell Phone
00:45:54.501                   : en:She's Not My Wife
00:47:50.534                   : en:The Perfect Violation
00:51:44.059                   : en:Hung Up
00:54:09.621                   : en:The Odds Are Even
00:56:35.767                   : en:Kelly or Pam?
00:58:09.486                   : en:A Sniper Situation
01:00:58.237                   : en:Trust Is the Key
01:03:53.204                   : en:A Chance for Redemption
01:08:50.417                   : en:The Man in 604
01:11:06.095                   : en:A Familiar Face
01:12:30.554                   : en:You'll Be Hearing From Me
01:14:06.066                   : en:A Ringing Phone
01:15:02.456                   : en:End Titles


分享快乐!
回复

使用道具 举报

 

精彩评论1

正序浏览
svipdht 发表于 2021-3-5 11:19 | 显示全部楼层
 
分享快乐!感谢分享!
分享快乐!
回复

使用道具 举报

 
您需要登录后才可以回帖 登录 | 立即注册

本版积分规则

0关注

14粉丝

856帖子

广告位
经典RPG武侠手游,安卓首发。
  • 版块推荐
  • 百宝箱
会员达人更多+
  • e2302

    主题:0 积分:11347
  • reese

    主题:0 积分:8396
  • powwow

    主题:0 积分:3294
广告位
经典RPG武侠手游,安卓首发。

信息推荐

更多+

最新信息

更多+

加入我们!分享快乐!

人人为我,我为人人!抵制吸血和收费分享行为!

从我做起!

只分享高品质影视资源

只求质量、不求数量、不抢首发!

Email:[email protected]

DHTCLUB - 高品质影视资源分享俱乐部