开启左侧

我的父亲母亲.The.Road.Home.1999.1080p.AMZN.WEB-DL.DDP5.1.H264-DHTCLUB

[复制链接]
dhtclub 发表于 2021-2-27 09:59 | 显示全部楼层 |阅读模式 打印 上一主题 下一主题

我的父亲母亲The Road Home(90年代)1080P 

简介一个男子(孙红雷饰)得知父亲去世的消息后回到家乡,年迈的母亲说起和父亲的往事。
  30多年前,城市青年骆长余(郑昊饰)从师范学校毕业后自愿来到了三合屯当小学教师,方圆十几里出了名的美人招娣(章子怡饰)暗自喜欢上了他,从此少女的心便不再安宁。由于学校还未盖好,村里人给建学校的人送“公饭”,招娣换着样儿做好饭菜,特意用一个青瓷碗盛好送去,满心希望教师能吃上她做的饭菜。后来骆长余终于知道了青瓷碗,明白了姑娘的心事,二人由此迸出了爱情的火花。
  学校建好了,听到教室里的念书声,招娣觉得那是有生以来最好听的声音。到后来,村里已经没有人再听了,只有招娣还听,一听就是四十多年…
导演张艺谋
编剧鲍十
类型爱情 剧情 
地区中国内地 
语言普通话 
时长90分钟
资源大小5.2G
字幕语言内嵌简中 内嵌繁中 内嵌简中英双语 内嵌繁中英双语 
豆瓣评分8.1
豆瓣链接https://movie.douban.com/subject/1294007/
IMDB评分7.8
IMDB链接https://www.imdb.com/title/tt0235060/
演员表

我的父亲母亲 的主要演员表……

章子怡 / 郑昊 / 孙红雷 / 李滨 / 嵇波 / 宋运成
影片介绍

我的父亲母亲 的剧情介绍……

一个男子(孙红雷饰)得知父亲去世的消息后回到家乡,年迈的母亲说起和父亲的往事。
  30多年前,城市青年骆长余(郑昊饰)从师范学校毕业后自愿来到了三合屯当小学教师,方圆十几里出了名的美人招娣(章子怡饰)暗自喜欢上了他,从此少女的心便不再安宁。由于学校还未盖好,村里人给建学校的人送“公饭”,招娣换着样儿做好饭菜,特意用一个青瓷碗盛好送去,满心希望教师能吃上她做的饭菜。后来骆长余终于知道了青瓷碗,明白了姑娘的心事,二人由此迸出了爱情的火花。
  学校建好了,听到教室里的念书声,招娣觉得那是有生以来最好听的声音。到后来,村里已经没有人再听了,只有招娣还听,一听就是四十多年…
资源下载
1080i/p下载地址 点击查看
4K下载地址 点击查看
《我的父亲母亲》下载帮助和注意事项:
1、本站所有资源均为磁力链资源,无需注册登录即可查看下载地址
2、使用迅雷或网盘离线是无法下载资源的!必须使用BT下载工具,如果没有下载速度请添加我们提供的tracker服务器列表
3、推荐BT下载工具:比特彗星qbittorrentutorrent 内网使用路由请做好端口映射或开启UPnP
4、不管选择哪种P2P下载工具,都希望你能在条件允许的前提下不要限速多做种分享上传一段时间
5、刻意限制P2P下载工具的上传速度(此行为俗称:吸血)将影响你的下载速度 防止被吸血和防止运营商过滤的教程
6、人人为我我为人人,只有大家不限制上传速度,大家才能共同获得更快的下载速度,这才是P2P应有的良性循环!
7、所有资源来源网络,本站服务器不存储任何种子文件,如侵犯您的权益,请联系 [email protected] 删除资源
点评&资源版本介绍
 
我的父亲母亲 大海战2 硬核RTS海战游戏-画面党手残党慎入.jpg
General
Unique ID                      : 39566255701461263397159279193993873751 (0x1DC42F049F2C739875B6690B83918957)
Format                         : Matroska
Format version                 : Version 4
File size                      : 5.07 GiB
Duration                       : 1 h 29 min
Overall bit rate mode          : Variable
Overall bit rate               : 8 127 kb/s
Movie name                     : The Road Home 2001
Encoded date                   : UTC 2021-02-25 13:33:08
Writing application            : mkvmerge v51.0.0 ('I Wish') 64-bit
Writing library                : libebml v1.4.0 + libmatroska v1.6.2

Video
ID                             : 2
Format                         : AVC
Format/Info                    : Advanced Video Codec
Format profile                 : [email protected]
Format settings                : CABAC / 4 Ref Frames
Format settings, CABAC         : Yes
Format settings, Reference fra : 4 frames
Codec ID                       : V_MPEG4/ISO/AVC
Duration                       : 1 h 29 min
Bit rate mode                  : Variable
Bit rate                       : 7 298 kb/s
Maximum bit rate               : 20.0 Mb/s
Width                          : 1 920 pixels
Height                         : 1 080 pixels
Display aspect ratio           : 16:9
Frame rate mode                : Constant
Frame rate                     : 23.976 (24000/1001) FPS
Color space                    : YUV
Chroma subsampling             : 4:2:0
Bit depth                      : 8 bits
Scan type                      : Progressive
Bits/(Pixel*Frame)             : 0.147
Stream size                    : 4.56 GiB (90%)
Writing library                : x264 core 148 r2722 1b0121b
Encoding settings              : cabac=1 / ref=4 / deblock=1:0:0 / analyse=0x3:0x111 / me=umh / subme=10 / psy=1 / psy_rd=1.00:0.00 / mixed_ref=1 / me_range=120 / chroma_me=1 / trellis=2 / 8x8dct=1 / cqm=0 / deadzone=21,11 / fast_pskip=1 / chroma_qp_offset=-2 / threads=8 / lookahead_threads=2 / sliced_threads=0 / nr=0 / decimate=1 / interlaced=0 / bluray_compat=0 / stitchable=1 / constrained_intra=0 / bframes=16 / b_pyramid=2 / b_adapt=2 / b_bias=0 / direct=3 / weightb=1 / open_gop=0 / weightp=2 / keyint=240 / keyint_min=121 / scenecut=0 / intra_refresh=0 / rc_lookahead=240 / rc=crf / mbtree=1 / crf=20.0 / qcomp=0.50 / qpmin=6 / qpmax=51 / qpstep=4 / vbv_maxrate=20000 / vbv_bufsize=25000 / crf_max=0.0 / nal_hrd=vbr / filler=0 / ip_ratio=1.40 / aq=1:0.80
Default                        : Yes
Forced                         : No

Audio #1
ID                             : 1
Format                         : E-AC-3
Format/Info                    : Enhanced AC-3
Commercial name                : Dolby Digital Plus
Codec ID                       : A_EAC3
Duration                       : 1 h 29 min
Bit rate mode                  : Constant
Bit rate                       : 640 kb/s
Channel(s)                     : 6 channels
Channel layout                 : L R C LFE Ls Rs
Sampling rate                  : 48.0 kHz
Frame rate                     : 31.250 FPS (1536 SPF)
Compression mode               : Lossy
Stream size                    : 409 MiB (8%)
Language                       : Chinese
Service kind                   : Complete Main
Default                        : Yes
Forced                         : Yes

Audio #2
ID                             : 3
Format                         : AAC LC SBR
Format/Info                    : Advanced Audio Codec Low Complexity with Spectral Band Replication
Commercial name                : HE-AAC
Format settings                : Explicit
Codec ID                       : A_AAC-2
Duration                       : 1 h 29 min
Bit rate                       : 128 kb/s
Channel(s)                     : 2 channels
Channel layout                 : L R
Sampling rate                  : 48.0 kHz
Frame rate                     : 23.438 FPS (2048 SPF)
Compression mode               : Lossy
Stream size                    : 81.8 MiB (2%)
Title                          : Mandarin [Original]
Language                       : Chinese
Default                        : No
Forced                         : No

Text #1
ID                             : 4
Format                         : PGS
Muxing mode                    : zlib
Codec ID                       : S_HDMV/PGS
Codec ID/Info                  : Picture based subtitle format used on BDs/HD-DVDs
Duration                       : 1 h 26 min
Bit rate                       : 22.6 kb/s
Count of elements              : 1462
Stream size                    : 13.9 MiB (0%)
Title                          : 简体中文
Language                       : Chinese
Default                        : Yes
Forced                         : No

Text #2
ID                             : 5
Format                         : PGS
Muxing mode                    : zlib
Codec ID                       : S_HDMV/PGS
Codec ID/Info                  : Picture based subtitle format used on BDs/HD-DVDs
Duration                       : 1 h 26 min
Bit rate                       : 23.6 kb/s
Count of elements              : 1462
Stream size                    : 14.5 MiB (0%)
Title                          : 繁体中文
Language                       : Chinese
Default                        : No
Forced                         : No

Text #3
ID                             : 6
Format                         : PGS
Muxing mode                    : zlib
Codec ID                       : S_HDMV/PGS
Codec ID/Info                  : Picture based subtitle format used on BDs/HD-DVDs
Duration                       : 1 h 26 min
Bit rate                       : 36.6 kb/s
Count of elements              : 1462
Stream size                    : 22.6 MiB (0%)
Title                          : 简英双语
Language                       : Chinese
Default                        : No
Forced                         : No

Text #4
ID                             : 7
Format                         : PGS
Muxing mode                    : zlib
Codec ID                       : S_HDMV/PGS
Codec ID/Info                  : Picture based subtitle format used on BDs/HD-DVDs
Duration                       : 1 h 26 min
Bit rate                       : 37.1 kb/s
Count of elements              : 1462
Stream size                    : 22.8 MiB (0%)
Title                          : 繁英双语
Language                       : Chinese
Default                        : No
Forced                         : No

Text #5
ID                             : 8
Format                         : ASS
Codec ID                       : S_TEXT/ASS
Codec ID/Info                  : Advanced Sub Station Alpha
Duration                       : 1 h 25 min
Bit rate                       : 56 b/s
Count of elements              : 687
Compression mode               : Lossless
Stream size                    : 35.4 KiB (0%)
Title                          : 简中ASS
Language                       : Chinese
Default                        : No
Forced                         : No

Text #6
ID                             : 9
Format                         : ASS
Codec ID                       : S_TEXT/ASS
Codec ID/Info                  : Advanced Sub Station Alpha
Duration                       : 1 h 25 min
Bit rate                       : 56 b/s
Count of elements              : 687
Compression mode               : Lossless
Stream size                    : 35.4 KiB (0%)
Title                          : 繁中ASS
Language                       : Chinese
Default                        : No
Forced                         : No


分享快乐!
回复

使用道具 举报

 

精彩评论3

正序浏览
wzy311 发表于 2021-2-27 17:34 | 显示全部楼层
 
重温经典,感谢发片,谢谢!
分享快乐!
回复

使用道具 举报

 
svipdht 发表于 2021-3-5 11:10 | 显示全部楼层
 
辛苦分享!感谢分享!
分享快乐!
回复

使用道具 举报

 
tianlong2hao 发表于 2021-8-28 02:55 | 显示全部楼层
 
想看很久了,谢谢楼主分享
分享快乐!
回复

使用道具 举报

 
您需要登录后才可以回帖 登录 | 立即注册

本版积分规则

0关注

14粉丝

856帖子

广告位
经典RPG武侠手游,安卓首发。
  • 版块推荐
  • 百宝箱
会员达人更多+
  • e2302

    主题:0 积分:11347
  • reese

    主题:0 积分:8396
  • powwow

    主题:0 积分:3294
广告位
经典RPG武侠手游,安卓首发。

信息推荐

更多+

最新信息

更多+

加入我们!分享快乐!

人人为我,我为人人!抵制吸血和收费分享行为!

从我做起!

只分享高品质影视资源

只求质量、不求数量、不抢首发!

Email:[email protected]

DHTCLUB - 高品质影视资源分享俱乐部