开启左侧

蔚蓝之境.WeiLanZhiJing.2020.CCTV9.1080P.AVC.AC3-DHTCLUB

[复制链接]
dhtclub 发表于 2021-2-27 20:33 | 显示全部楼层 |阅读模式 打印 上一主题 下一主题

蔚蓝之境购买VIP查看下载地址(2020)1080P 

简介《蔚蓝之境》是中国的纪录片团队第一次以自然纪录片的方式,全面、系统地拍摄海洋的故事,也是迄今为止我国规模最大、范围最广、内容最为全面的海洋拍摄行动。本片共6集,以中国近海为舞台,带领观众纵览海面冰封的渤海湾,四季分明的黄海、东海,长夏无冬的南海,分别从季节、潮流、滨海湿地、海岛、海湾、生存挑战等几个角度,讲述海洋生物的故事,呈现一片神秘、壮阔、活力的蔚蓝之境。
导演李勇 / 唐欣荣 / 姜蕾 / 谢宇斌 / 刘佳 / 陈红 / 张晗
编剧许伟
类型自然 
地区中国内地 
语言普通话 
集数6集
资源大小30.3G
字幕语言内嵌简中 
豆瓣评分9.2
豆瓣链接https://movie.douban.com/subject/34963928/
IMDB评分升级VIP查看密码
IMDB链接
演员表

蔚蓝之境 的主要演员表……

刘琮
影片介绍

蔚蓝之境 的剧情介绍……

《蔚蓝之境》是中国的纪录片团队第一次以自然纪录片的方式,全面、系统地拍摄海洋的故事,也是迄今为止我国规模最大、范围最广、内容最为全面的海洋拍摄行动。本片共6集,以中国近海为舞台,带领观众纵览海面冰封的渤海湾,四季分明的黄海、东海,长夏无冬的南海,分别从季节、潮流、滨海湿地、海岛、海湾、生存挑战等几个角度,讲述海洋生物的故事,呈现一片神秘、壮阔、活力的蔚蓝之境。
资源下载
1080i/p下载地址 点击查看
4K下载地址 点击查看
《蔚蓝之境》下载帮助和注意事项:
1、本站所有资源均为磁力链资源,无需注册登录即可查看下载地址
2、使用迅雷或网盘离线是无法下载资源的!必须使用BT下载工具,如果没有下载速度请添加我们提供的tracker服务器列表
3、推荐BT下载工具:比特彗星qbittorrentutorrent 内网使用路由请做好端口映射或开启UPnP
4、不管选择哪种P2P下载工具,都希望你能在条件允许的前提下不要限速多做种分享上传一段时间
5、刻意限制P2P下载工具的上传速度(此行为俗称:吸血)将影响你的下载速度 防止被吸血和防止运营商过滤的教程
6、人人为我我为人人,只有大家不限制上传速度,大家才能共同获得更快的下载速度,这才是P2P应有的良性循环!
7、所有资源来源网络,本站服务器不存储任何种子文件,如侵犯您的权益,请联系 [email protected] 删除资源
点评&资源版本介绍
 
蔚蓝之境-第1集:季节的轮回 大海战2 硬核RTS海战游戏-画面党手残党慎入.jpg
General
Format                         : Matroska
Format version                 : Version 1
File size                      : 4.70 GiB
Duration                       : 43 min 55 s
Overall bit rate               : 15.3 Mb/s
Writing application            : Cyberlink Matroska Muxer v1.0.0
Writing library                : libebml v0.7.8 + libmatroska v0.8.1
ErrorDetectionType             : Per level 1

Video
ID                             : 1
Format                         : AVC
Format/Info                    : Advanced Video Codec
Format profile                 : [email protected]
Format settings                : CABAC / 2 Ref Frames
Format settings, CABAC         : Yes
Format settings, Reference fra : 2 frames
Format settings, GOP           : M=3, N=13
Codec ID                       : V_MPEG4/ISO/AVC
Duration                       : 43 min 55 s
Bit rate                       : 14.6 Mb/s
Width                          : 1 920 pixels
Height                         : 1 080 pixels
Display aspect ratio           : 16:9
Frame rate mode                : Constant
Frame rate                     : 25.000 FPS
Color space                    : YUV
Chroma subsampling             : 4:2:0
Bit depth                      : 8 bits
Scan type                      : Progressive
Bits/(Pixel*Frame)             : 0.282
Stream size                    : 4.48 GiB (96%)
Language                       : English
Default                        : Yes
Forced                         : No

Audio
ID                             : 2
Format                         : AC-3
Format/Info                    : Audio Coding 3
Commercial name                : Dolby Digital
Codec ID                       : A_AC3
Duration                       : 43 min 55 s
Bit rate mode                  : Constant
Bit rate                       : 384 kb/s
Channel(s)                     : 2 channels
Channel layout                 : L R
Sampling rate                  : 48.0 kHz
Frame rate                     : 31.250 FPS (1536 SPF)
Compression mode               : Lossy
Stream size                    : 121 MiB (3%)
Language                       : English
Service kind                   : Complete Main
Default                        : Yes
Forced                         : No


标签:蔚蓝20201080p
分享快乐!
回复

使用道具 举报

 
您需要登录后才可以回帖 登录 | 立即注册

本版积分规则

0关注

11粉丝

838帖子

广告位
经典RPG武侠手游,安卓首发。
  • 版块推荐
  • 百宝箱
推荐阅读更多+
会员达人更多+
广告位
经典RPG武侠手游,安卓首发。

信息推荐

更多+

最新信息

更多+

加入我们!分享快乐!

人人为我,我为人人!抵制吸血和收费分享行为!

从我做起!

只分享高品质影视资源

只求质量、不求数量、不抢首发!

Email:[email protected]

DHTCLUB - 高品质影视资源分享俱乐部