开启左侧

盗钥匙的方法.Key.of.Life.2012.1080p.BluRay.x264.DTS-DHTCLUB

[复制链接]
dhtclub 发表于 2021-3-1 09:57 | 显示全部楼层 |阅读模式 打印 上一主题 下一主题

盗钥匙的方法Key of Life(2013~2011)1080P 

简介小剧场演员樱井武史(堺雅人 饰)奋斗多年始终未见出头天,穷困潦倒,情场失意,绝望至极的他连自杀都不成功。无奈之下,他只得进入大众浴池洗澡,谁知却阴差阳错用一枚香皂滑到了某个陌生男子。男子倒地晕厥,樱井则鬼迷心窍偷走了对方的储物柜钥匙,从此化名近藤,过起了从来不敢企及的富贵人生活。然而令他怎么也想象不到的是,近藤(香川照之 饰)竟是一名名震黑道的冷血杀手。在此之后,樱井不得不接手来自黑道的委托,硬着头皮干起杀人的营生。与此同时,从医院醒来的近藤失去记忆,误以为自己是走投无路的樱井。在偶然结识的美丽女性水岛早苗(广末凉子 饰)的帮助下,他一点一滴重新认识作为演员的自己,苦苦探索前进的方向,在此过程中他和早苗的内心也悄悄发生变化。而当他的记忆恢复那一刹那,三个人的命运也由此纠缠到了一起……
  本片荣获2012年日本电影旬报十佳影片第八名。
导演内田贤治
编剧内田贤治
类型喜剧 剧情 
地区日本 
语言日语 
时长129分钟
资源大小15.1G
字幕语言内嵌简中 内嵌繁中 
豆瓣评分8.5
豆瓣链接https://movie.douban.com/subject/6880497/
IMDB评分7.4
IMDB链接https://www.imdb.com/title/tt2078599
演员表

盗钥匙的方法 的主要演员表……

堺雅人 / 香川照之 / 广末凉子 / 荒川良良 / 森口瑶子
影片介绍

盗钥匙的方法 的剧情介绍……

小剧场演员樱井武史(堺雅人 饰)奋斗多年始终未见出头天,穷困潦倒,情场失意,绝望至极的他连自杀都不成功。无奈之下,他只得进入大众浴池洗澡,谁知却阴差阳错用一枚香皂滑到了某个陌生男子。男子倒地晕厥,樱井则鬼迷心窍偷走了对方的储物柜钥匙,从此化名近藤,过起了从来不敢企及的富贵人生活。然而令他怎么也想象不到的是,近藤(香川照之 饰)竟是一名名震黑道的冷血杀手。在此之后,樱井不得不接手来自黑道的委托,硬着头皮干起杀人的营生。与此同时,从医院醒来的近藤失去记忆,误以为自己是走投无路的樱井。在偶然结识的美丽女性水岛早苗(广末凉子 饰)的帮助下,他一点一滴重新认识作为演员的自己,苦苦探索前进的方向,在此过程中他和早苗的内心也悄悄发生变化。而当他的记忆恢复那一刹那,三个人的命运也由此纠缠到了一起……
  本片荣获2012年日本电影旬报十佳影片第八名。
资源下载
1080i/p下载地址 点击查看
4K下载地址 点击查看
《盗钥匙的方法》下载帮助和注意事项:
1、本站所有资源均为磁力链资源,无需注册登录即可查看下载地址
2、使用迅雷或网盘离线是无法下载资源的!必须使用BT下载工具,如果没有下载速度请添加我们提供的tracker服务器列表
3、推荐BT下载工具:比特彗星qbittorrentutorrent 内网使用路由请做好端口映射或开启UPnP
4、不管选择哪种P2P下载工具,都希望你能在条件允许的前提下不要限速多做种分享上传一段时间
5、刻意限制P2P下载工具的上传速度(此行为俗称:吸血)将影响你的下载速度 防止被吸血和防止运营商过滤的教程
6、人人为我我为人人,只有大家不限制上传速度,大家才能共同获得更快的下载速度,这才是P2P应有的良性循环!
7、所有资源来源网络,本站服务器不存储任何种子文件,如侵犯您的权益,请联系 [email protected] 删除资源
点评&资源版本介绍
 
盗钥匙的方法 大海战2 硬核RTS海战游戏-画面党手残党慎入.jpg
General
Unique ID                      : 251619214644651984777446322120714586145 (0xBD4C1916F822FB039040D0A0F51B8821)
Format                         : Matroska
Format version                 : Version 4
File size                      : 15.0 GiB
Duration                       : 2 h 8 min
Overall bit rate               : 16.7 Mb/s
Movie name                     : Jubowo @ WiKi
Encoded date                   : UTC 2015-10-28 23:27:09
Writing application            : mkvmerge v8.4.0 ('A better way to fly') 64bit
Writing library                : libebml v1.3.1 + libmatroska v1.4.2

Video
ID                             : 1
Format                         : AVC
Format/Info                    : Advanced Video Codec
Format profile                 : [email protected]
Format settings                : CABAC / 4 Ref Frames
Format settings, CABAC         : Yes
Format settings, Reference fra : 4 frames
Codec ID                       : V_MPEG4/ISO/AVC
Duration                       : 2 h 8 min
Bit rate                       : 16.0 Mb/s
Width                          : 1 920 pixels
Height                         : 1 036 pixels
Display aspect ratio           : 1.85:1
Frame rate mode                : Constant
Frame rate                     : 23.976 (24000/1001) FPS
Color space                    : YUV
Chroma subsampling             : 4:2:0
Bit depth                      : 8 bits
Scan type                      : Progressive
Bits/(Pixel*Frame)             : 0.335
Stream size                    : 14.3 GiB (95%)
Writing library                : x264 core 129 r2245+704+36 8e61944 tMod+MixAQ [[email protected]:2:0 X86_64]
Encoding settings              : cabac=1 / ref=4 / deblock=1:-3:-3 / analyse=0x3:0x133 / me=umh / subme=11 / psy=1 / fade_compensate=0.00 / psy_rd=1.05:0.10 / mixed_ref=1 / me_range=64 / chroma_me=1 / trellis=2 / 8x8dct=1 / cqm=0 / deadzone=21,11 / fast_pskip=0 / chroma_qp_offset=-3 / threads=18 / lookahead_threads=3 / sliced_threads=0 / nr=0 / decimate=0 / interlaced=0 / bluray_compat=0 / constrained_intra=0 / fgo=0 / bframes=10 / b_pyramid=2 / b_adapt=2 / b_bias=0 / direct=3 / weightb=1 / open_gop=0 / weightp=2 / keyint=250 / keyint_min=23 / scenecut=40 / intra_refresh=0 / rc=2pass / mbtree=0 / bitrate=15962 / ratetol=1.0 / qcomp=0.60 / qpmin=0 / qpmax=69 / qpstep=4 / cplxblur=20.0 / qblur=0.5 / ip_ratio=1.20 / pb_ratio=1.10 / aq=1 / aq-strength=0.80 / aq-sensitivity=10.00 / aq-ifactor=1.00 / aq-pfactor=1.00 / aq-bfactor=1.00 / aq2=0
Language                       : Japanese
Default                        : Yes
Forced                         : No

Audio
ID                             : 2
Format                         : DTS
Format/Info                    : Digital Theater Systems
Codec ID                       : A_DTS
Duration                       : 2 h 8 min
Bit rate mode                  : Constant
Bit rate                       : 768 kb/s
Channel(s)                     : 6 channels
Channel layout                 : C L R Ls Rs LFE
Sampling rate                  : 48.0 kHz
Frame rate                     : 93.750 FPS (512 SPF)
Bit depth                      : 16 bits
Compression mode               : Lossy
Stream size                    : 705 MiB (5%)
Language                       : Japanese
Default                        : Yes
Forced                         : No

Text #1
ID                             : 3
Format                         : UTF-8
Codec ID                       : S_TEXT/UTF8
Codec ID/Info                  : UTF-8 Plain Text
Duration                       : 2 h 4 min
Bit rate                       : 28 b/s
Count of elements              : 1166
Stream size                    : 26.2 KiB (0%)
Title                          : Simplified
Language                       : Chinese
Default                        : Yes
Forced                         : No

Text #2
ID                             : 4
Format                         : UTF-8
Codec ID                       : S_TEXT/UTF8
Codec ID/Info                  : UTF-8 Plain Text
Duration                       : 2 h 4 min
Bit rate                       : 28 b/s
Count of elements              : 1166
Stream size                    : 26.2 KiB (0%)
Title                          : Traditional
Language                       : Chinese
Default                        : No
Forced                         : No

Menu
00:00:00.000                   : en:00:00:00.000
00:13:39.985                   : en:00:13:39.985
00:25:21.811                   : en:00:25:21.811
00:37:41.884                   : en:00:37:41.884
00:45:26.598                   : en:00:45:26.598
00:56:41.064                   : en:00:56:41.064
01:10:36.941                   : en:01:10:36.941
01:21:14.953                   : en:01:21:14.953
01:30:05.274                   : en:01:30:05.274
01:40:36.780                   : en:01:40:36.780
01:51:07.077                   : en:01:51:07.077
02:02:54.116                   : en:02:02:54.116
02:08:19.691                   : en:02:08:19.691


分享快乐!
回复

使用道具 举报

 
您需要登录后才可以回帖 登录 | 立即注册

本版积分规则

0关注

14粉丝

856帖子

广告位
经典RPG武侠手游,安卓首发。
  • 版块推荐
  • 百宝箱
会员达人更多+
  • e2302

    主题:0 积分:11347
  • reese

    主题:0 积分:8396
  • powwow

    主题:0 积分:3294
广告位
经典RPG武侠手游,安卓首发。

信息推荐

更多+

最新信息

更多+

加入我们!分享快乐!

人人为我,我为人人!抵制吸血和收费分享行为!

从我做起!

只分享高品质影视资源

只求质量、不求数量、不抢首发!

Email:[email protected]

DHTCLUB - 高品质影视资源分享俱乐部