开启左侧

感官世界.In.The.Realm.Of.The.Senses.1976.1080p.TWN.Blu-Ray.AVC-DHTCLUB

[复制链接]
dhtclub 发表于 2021-3-6 17:32 | 显示全部楼层 |阅读模式 打印 上一主题 下一主题

感官世界In.The.Realm.Of.The.Senses(更早)1080P 

简介红透京都的艺妓阿部定(松田英子 饰)从良成为某户富人家的佣人后,被男主人石田吉藏(达也富士 饰)看上,而他的英俊、风流和潇洒也让阿部定倾倒,两人在短短时间内陷入肉欲之欢中难以自拔。为更酣畅地体验到性爱的快感,阿部定和石田吉藏私奔到一家旅馆,开始了更大胆更狂妄更旁若无人的交合, 令旅馆上下为之目瞪口呆。而在渐渐感觉不到性爱的乐趣后,他们开始追求类似死亡的高潮,两人的交欢逐渐演变成一种旁人无法理解的爱与死亡并存的仪式。
导演大岛渚 Nagisa Ôshima
编剧未知
类型爱情 惊悚 情色 
地区日本 法国 
语言日语 
时长103分钟
资源大小19G
字幕语言内嵌简中 内嵌繁中 
豆瓣评分无分
豆瓣链接
IMDB评分6.6
IMDB链接https://www.imdb.com/title/tt0074102/
演员表

感官世界 的主要演员表……

藤龙也 Tatsuya Fuji /松田英子 Eiko Matsuda /康子 Matsui Yasuko /芹明香 Meika Seri /小林加奈枝
影片介绍

感官世界 的剧情介绍……

红透京都的艺妓阿部定(松田英子 饰)从良成为某户富人家的佣人后,被男主人石田吉藏(达也富士 饰)看上,而他的英俊、风流和潇洒也让阿部定倾倒,两人在短短时间内陷入肉欲之欢中难以自拔。为更酣畅地体验到性爱的快感,阿部定和石田吉藏私奔到一家旅馆,开始了更大胆更狂妄更旁若无人的交合, 令旅馆上下为之目瞪口呆。而在渐渐感觉不到性爱的乐趣后,他们开始追求类似死亡的高潮,两人的交欢逐渐演变成一种旁人无法理解的爱与死亡并存的仪式。
资源下载
1080i/p下载地址 点击查看
4K下载地址 点击查看
《感官世界》下载帮助和注意事项:
1、本站所有资源均为磁力链资源,无需注册登录即可查看下载地址
2、使用迅雷或网盘离线是无法下载资源的!必须使用BT下载工具,如果没有下载速度请添加我们提供的tracker服务器列表
3、推荐BT下载工具:比特彗星qbittorrentutorrent 内网使用路由请做好端口映射或开启UPnP
4、不管选择哪种P2P下载工具,都希望你能在条件允许的前提下不要限速多做种分享上传一段时间
5、刻意限制P2P下载工具的上传速度(此行为俗称:吸血)将影响你的下载速度 防止被吸血和防止运营商过滤的教程
6、人人为我我为人人,只有大家不限制上传速度,大家才能共同获得更快的下载速度,这才是P2P应有的良性循环!
7、所有资源来源网络,本站服务器不存储任何种子文件,如侵犯您的权益,请联系 [email protected] 删除资源
点评&资源版本介绍
 
感官世界 大海战2 硬核RTS海战游戏-画面党手残党慎入.jpg
General
Unique ID                      : 126756163611526433893630105976751339389 (0x5F5C595F80BE3B76B3F29395DD91377D)
Format                         : Matroska
Format version                 : Version 4
File size                      : 18.9 GiB
Duration                       : 1 h 42 min
Overall bit rate               : 26.5 Mb/s
Encoded date                   : UTC 2021-03-05 06:38:49
Writing application            : mkvmerge v53.0.0 ('Fool's Gold') 64-bit
Writing library                : libebml v1.4.1 + libmatroska v1.6.2

Video
ID                             : 1
Format                         : AVC
Format/Info                    : Advanced Video Codec
Format profile                 : [email protected]
Format settings                : CABAC / 4 Ref Frames
Format settings, CABAC         : Yes
Format settings, Reference fra : 4 frames
Format settings, GOP           : M=3, N=24
Codec ID                       : V_MPEG4/ISO/AVC
Duration                       : 1 h 42 min
Bit rate mode                  : Constant
Bit rate                       : 25.0 Mb/s
Width                          : 1 920 pixels
Height                         : 1 080 pixels
Display aspect ratio           : 16:9
Frame rate mode                : Constant
Frame rate                     : 24.000 FPS
Standard                       : NTSC
Color space                    : YUV
Chroma subsampling             : 4:2:0
Bit depth                      : 8 bits
Scan type                      : Progressive
Bits/(Pixel*Frame)             : 0.502
Stream size                    : 17.8 GiB (94%)
Default                        : Yes
Forced                         : No
Color range                    : Limited
Color primaries                : BT.709
Transfer characteristics       : BT.709
Matrix coefficients            : BT.709

Audio
ID                             : 2
Format                         : PCM
Format settings                : Little / Signed
Codec ID                       : A_PCM/INT/LIT
Duration                       : 1 h 42 min
Bit rate mode                  : Constant
Bit rate                       : 1 536 kb/s
Channel(s)                     : 2 channels
Sampling rate                  : 48.0 kHz
Frame rate                     : 200.000 FPS (240 SPF)
Bit depth                      : 16 bits
Stream size                    : 1.10 GiB (6%)
Default                        : Yes
Forced                         : No

Text #1
ID                             : 3
Format                         : PGS
Muxing mode                    : zlib
Codec ID                       : S_HDMV/PGS
Codec ID/Info                  : Picture based subtitle format used on BDs/HD-DVDs
Duration                       : 1 h 40 min
Bit rate                       : 22.5 kb/s
Count of elements              : 1730
Stream size                    : 16.2 MiB (0%)
Title                          : CHT
Language                       : Chinese
Default                        : Yes
Forced                         : No

Text #2
ID                             : 4
Format                         : PGS
Muxing mode                    : zlib
Codec ID                       : S_HDMV/PGS
Codec ID/Info                  : Picture based subtitle format used on BDs/HD-DVDs
Duration                       : 1 h 39 min
Bit rate                       : 26.3 kb/s
Count of elements              : 1580
Stream size                    : 18.8 MiB (0%)
Title                          : ENG
Default                        : No
Forced                         : No


标签:1080p
分享快乐!
回复

使用道具 举报

 
您需要登录后才可以回帖 登录 | 立即注册

本版积分规则

0关注

14粉丝

857帖子

广告位
经典RPG武侠手游,安卓首发。
  • 版块推荐
  • 百宝箱
会员达人更多+
  • e2302

    主题:0 积分:11348
  • reese

    主题:0 积分:8448
  • powwow

    主题:0 积分:3294
广告位
经典RPG武侠手游,安卓首发。

信息推荐

更多+

最新信息

更多+

加入我们!分享快乐!

人人为我,我为人人!抵制吸血和收费分享行为!

从我做起!

只分享高品质影视资源

只求质量、不求数量、不抢首发!

Email:[email protected]

DHTCLUB - 高品质影视资源分享俱乐部