开启左侧

最后的狮子.The.Last.Lions.2011.BluRay.2160p.AC3-DHTCLUB

[复制链接]
dhtclub 发表于 2021-3-6 18:56 | 显示全部楼层 |阅读模式 打印 上一主题 下一主题

最后的狮子购买VIP查看下载地址(2013~2011)4K 

简介非洲大草原上,千百年来始终上演不变的残酷舞蹈。由于人类的捕猎与开发土地,狮子数量锐减,生存空间始终在缩小,母狮马蒂陶一家的领地便受到迁徙狮群的挑战。在争夺领地的过程中,马蒂陶失去了她的公狮,不得不带着三只小狮子一路逃开寻找新的领地。横跨河流的过程中,一只小狮子丧生,马蒂陶和剩下两个孩子成功渡河到了一片名为“杜巴”的小岛。修整生息之后,岛上又迎来同样被迫迁徙的野牛群,马蒂陶慢慢掌握猎杀野牛的技巧,也持续躲避其他狮群的追击,还要面对鬣狗的争食。“单身妈妈”马蒂陶和她的幼崽是否是地球上最后的狮子的缩影呢?曾经的百兽之王如今生存得这样艰难。
导演Derek Thomas
编剧Dereck Joubert
类型动物 
地区美国 其它 
语言英语 
集数1集
资源大小5.5G
字幕语言内嵌简中 内嵌繁中 内嵌英语 内嵌简中英双语 
豆瓣评分9.2
豆瓣链接https://movie.douban.com/subject/5912779/
IMDB评分升级VIP查看密码
IMDB链接https://www.imdb.com/title/tt1692928
演员表

最后的狮子 的主要演员表……

杰瑞米·艾恩斯
影片介绍

最后的狮子 的剧情介绍……

非洲大草原上,千百年来始终上演不变的残酷舞蹈。由于人类的捕猎与开发土地,狮子数量锐减,生存空间始终在缩小,母狮马蒂陶一家的领地便受到迁徙狮群的挑战。在争夺领地的过程中,马蒂陶失去了她的公狮,不得不带着三只小狮子一路逃开寻找新的领地。横跨河流的过程中,一只小狮子丧生,马蒂陶和剩下两个孩子成功渡河到了一片名为“杜巴”的小岛。修整生息之后,岛上又迎来同样被迫迁徙的野牛群,马蒂陶慢慢掌握猎杀野牛的技巧,也持续躲避其他狮群的追击,还要面对鬣狗的争食。“单身妈妈”马蒂陶和她的幼崽是否是地球上最后的狮子的缩影呢?曾经的百兽之王如今生存得这样艰难。
资源下载
1080i/p下载地址 点击查看
4K下载地址 点击查看
《最后的狮子》下载帮助和注意事项:
1、本站所有资源均为磁力链资源,无需注册登录即可查看下载地址
2、使用迅雷或网盘离线是无法下载资源的!必须使用BT下载工具,如果没有下载速度请添加我们提供的tracker服务器列表
3、推荐BT下载工具:比特彗星qbittorrentutorrent 内网使用路由请做好端口映射或开启UPnP
4、不管选择哪种P2P下载工具,都希望你能在条件允许的前提下不要限速多做种分享上传一段时间
5、刻意限制P2P下载工具的上传速度(此行为俗称:吸血)将影响你的下载速度 防止被吸血和防止运营商过滤的教程
6、人人为我我为人人,只有大家不限制上传速度,大家才能共同获得更快的下载速度,这才是P2P应有的良性循环!
7、所有资源来源网络,本站服务器不存储任何种子文件,如侵犯您的权益,请联系 [email protected] 删除资源
点评&资源版本介绍
 
最后的狮子 大海战2 硬核RTS海战游戏-画面党手残党慎入.jpg
General
Unique ID                      : 226787232456716667890110166453690326923 (0xAA9DA1D7D060C5D07428D030DAE85F8B)
Format                         : Matroska
Format version                 : Version 4
File size                      : 5.36 GiB
Duration                       : 1 h 29 min
Overall bit rate               : 8 558 kb/s
Encoded date                   : UTC 2021-03-06 09:12:49
Writing application            : mkvmerge v53.0.0 ('Fool's Gold') 64-bit
Writing library                : libebml v1.4.1 + libmatroska v1.6.2

Video
ID                             : 1
Format                         : HEVC
Format/Info                    : High Efficiency Video Coding
Format profile                 : [email protected]@Main
Codec ID                       : V_MPEGH/ISO/HEVC
Duration                       : 1 h 29 min
Bit rate                       : 8 070 kb/s
Width                          : 3 840 pixels
Height                         : 2 160 pixels
Display aspect ratio           : 16:9
Frame rate mode                : Constant
Frame rate                     : 23.976 (24000/1001) FPS
Color space                    : YUV
Chroma subsampling             : 4:2:0
Bit depth                      : 8 bits
Bits/(Pixel*Frame)             : 0.041
Stream size                    : 5.06 GiB (94%)
Default                        : Yes
Forced                         : No

Audio
ID                             : 2
Format                         : AC-3
Format/Info                    : Audio Coding 3
Commercial name                : Dolby Digital
Codec ID                       : A_AC3
Duration                       : 1 h 29 min
Bit rate mode                  : Constant
Bit rate                       : 448 kb/s
Channel(s)                     : 6 channels
Channel layout                 : L R C LFE Ls Rs
Sampling rate                  : 48.0 kHz
Frame rate                     : 31.250 FPS (1536 SPF)
Compression mode               : Lossy
Delay relative to video        : -5 ms
Stream size                    : 287 MiB (5%)
Language                       : English
Service kind                   : Complete Main
Default                        : Yes
Forced                         : No

Text #1
ID                             : 3
Format                         : PGS
Muxing mode                    : zlib
Codec ID                       : S_HDMV/PGS
Codec ID/Info                  : Picture based subtitle format used on BDs/HD-DVDs
Duration                       : 1 h 27 min
Bit rate                       : 18.5 kb/s
Count of elements              : 781
Stream size                    : 11.6 MiB (0%)
Title                          : 简体中字
Language                       : Chinese
Default                        : No
Forced                         : No

Text #2
ID                             : 4
Format                         : PGS
Muxing mode                    : zlib
Codec ID                       : S_HDMV/PGS
Codec ID/Info                  : Picture based subtitle format used on BDs/HD-DVDs
Duration                       : 1 h 27 min
Bit rate                       : 17.1 kb/s
Count of elements              : 781
Stream size                    : 10.7 MiB (0%)
Title                          : 繁体中字
Language                       : Chinese
Default                        : No
Forced                         : No

Text #3
ID                             : 5
Format                         : PGS
Muxing mode                    : zlib
Codec ID                       : S_HDMV/PGS
Codec ID/Info                  : Picture based subtitle format used on BDs/HD-DVDs
Duration                       : 1 h 27 min
Bit rate                       : 27.8 kb/s
Count of elements              : 781
Stream size                    : 17.4 MiB (0%)
Title                          : 简英双语
Language                       : Chinese
Default                        : No
Forced                         : No

Text #4
ID                             : 6
Format                         : PGS
Muxing mode                    : zlib
Codec ID                       : S_HDMV/PGS
Codec ID/Info                  : Picture based subtitle format used on BDs/HD-DVDs
Duration                       : 1 h 25 min
Bit rate                       : 12.4 kb/s
Count of elements              : 1048
Stream size                    : 7.58 MiB (0%)
Title                          : 英文字幕
Language                       : English
Default                        : No
Forced                         : No


分享快乐!
回复

使用道具 举报

 
您需要登录后才可以回帖 登录 | 立即注册

本版积分规则

0关注

11粉丝

838帖子

广告位
经典RPG武侠手游,安卓首发。
  • 版块推荐
  • 百宝箱
推荐阅读更多+
会员达人更多+
广告位
经典RPG武侠手游,安卓首发。

信息推荐

更多+

最新信息

更多+

加入我们!分享快乐!

人人为我,我为人人!抵制吸血和收费分享行为!

从我做起!

只分享高品质影视资源

只求质量、不求数量、不抢首发!

Email:[email protected]

DHTCLUB - 高品质影视资源分享俱乐部