开启左侧

克洛伊.Chloe.2009.BluRay.1080p.x265.10bit-DHTCLUB

[复制链接]
dhtclub 发表于 2021-4-3 19:39 | 显示全部楼层 |阅读模式 打印 上一主题 下一主题

克洛伊Chloe(2010~2006)1080P 

简介事业有成、家庭幸福的女医生凯瑟琳(朱利安·摩尔 Julianne Moore 饰),总是被诊所楼下的一个应召女郎牵绊着目光。音乐教授戴维(连姆·尼森 Liam Neeson 饰)生日当晚错过凯瑟琳准备的惊喜派对,第二天凯瑟琳又看到丈夫手机里收到学生发给他的暧昧短信,一切似乎验证了凯瑟琳长期以来对于丈夫不忠的怀疑。为了证实自己的猜测,凯瑟琳雇佣应召女郎克洛伊(阿曼达·塞弗里德 Amanda Seyfried 饰)去考验丈夫。在克洛伊向凯瑟琳的汇报里,关于她与戴维的交往细节令凯瑟琳感觉到极度伤心,被背叛和失落的情绪笼罩的凯瑟琳和克洛伊发生一夜情。凯瑟琳在外过夜的事情令戴维极为不悦,在夫妻二人争吵的过程中,面对妻子对于自己不忠的指控,戴维坚决否认。三人之间的关系扑朔迷离,凯瑟琳的家庭遭受严重危机…
导演阿托姆·伊戈扬
编剧艾琳·克雷斯达·威尔森 / 安妮·芳婷
类型爱情 剧情 悬疑 
地区美国 法国 加拿大 
语言英语 
时长96分钟
资源大小4.8G
字幕语言内嵌简中 内嵌英语 内嵌简中英双语 
豆瓣评分7.4
豆瓣链接https://movie.douban.com/subject/3418187/
IMDB评分6.3
IMDB链接https://www.imdb.com/title/tt1352824/
演员表

克洛伊 的主要演员表……

朱丽安·摩尔 / 连姆·尼森 / 阿曼达·塞弗里德 / 麦克斯·泰瑞奥 / 罗伯特·H·托马斯 / 妮娜·杜波夫 / Mishu Vellani / 朱莉·卡纳 / 劳拉·德卡特莱特 / 娜塔莉·林斯卡 / Tiffany Lyndall-Knight / 梅根·赫弗恩 / Krysta Carter / 大卫·瑞勒 / 亚当·克里斯蒂
影片介绍

克洛伊 的剧情介绍……

事业有成、家庭幸福的女医生凯瑟琳(朱利安·摩尔 Julianne Moore 饰),总是被诊所楼下的一个应召女郎牵绊着目光。音乐教授戴维(连姆·尼森 Liam Neeson 饰)生日当晚错过凯瑟琳准备的惊喜派对,第二天凯瑟琳又看到丈夫手机里收到学生发给他的暧昧短信,一切似乎验证了凯瑟琳长期以来对于丈夫不忠的怀疑。为了证实自己的猜测,凯瑟琳雇佣应召女郎克洛伊(阿曼达·塞弗里德 Amanda Seyfried 饰)去考验丈夫。在克洛伊向凯瑟琳的汇报里,关于她与戴维的交往细节令凯瑟琳感觉到极度伤心,被背叛和失落的情绪笼罩的凯瑟琳和克洛伊发生一夜情。凯瑟琳在外过夜的事情令戴维极为不悦,在夫妻二人争吵的过程中,面对妻子对于自己不忠的指控,戴维坚决否认。三人之间的关系扑朔迷离,凯瑟琳的家庭遭受严重危机…
资源下载
1080i/p下载地址 点击查看
4K下载地址 点击查看
《克洛伊》下载帮助和注意事项:
1、本站所有资源均为磁力链资源,无需注册登录即可查看下载地址
2、使用迅雷或网盘离线是无法下载资源的!必须使用BT下载工具,如果没有下载速度请添加我们提供的tracker服务器列表
3、推荐BT下载工具:比特彗星qbittorrentutorrent 内网使用路由请做好端口映射或开启UPnP
4、不管选择哪种P2P下载工具,都希望你能在条件允许的前提下不要限速多做种分享上传一段时间
5、刻意限制P2P下载工具的上传速度(此行为俗称:吸血)将影响你的下载速度 防止被吸血和防止运营商过滤的教程
6、人人为我我为人人,只有大家不限制上传速度,大家才能共同获得更快的下载速度,这才是P2P应有的良性循环!
7、所有资源来源网络,本站服务器不存储任何种子文件,如侵犯您的权益,请联系 [email protected] 删除资源
点评&资源版本介绍
 
克洛伊 大海战2 硬核RTS海战游戏-画面党手残党慎入.jpg
General
Unique ID                      : 198317195299820453627851998826919106203 (0x953280A3481FE75A90FD0D0C9A9C169B)
Format                         : Matroska
Format version                 : Version 4
File size                      : 4.74 GiB
Duration                       : 1 h 36 min
Overall bit rate               : 7 057 kb/s
Encoded date                   : UTC 2018-01-07 10:35:03
Writing application            : mkvmerge v8.5.2 ('Crosses') 32bit
Writing library                : libebml v1.3.3 + libmatroska v1.4.4

Video
ID                             : 1
Format                         : HEVC
Format/Info                    : High Efficiency Video Coding
Format profile                 : Main [email protected]@Main
Codec ID                       : V_MPEGH/ISO/HEVC
Duration                       : 1 h 36 min
Bit rate                       : 6 415 kb/s
Width                          : 1 920 pixels
Height                         : 1 036 pixels
Display aspect ratio           : 1.85:1
Frame rate mode                : Constant
Frame rate                     : 23.976 (24000/1001) FPS
Color space                    : YUV
Chroma subsampling             : 4:2:0
Bit depth                      : 10 bits
Bits/(Pixel*Frame)             : 0.135
Stream size                    : 4.31 GiB (91%)
Writing library                : x265 2.6+14-f09f3b4a2115:[Windows][GCC 7.2.0][64 bit] 10bit
Encoding settings              : cpuid=1173503 / frame-threads=2 / numa-pools=4 / wpp / no-pmode / no-pme / no-psnr / no-ssim / log-level=2 / input-csp=1 / input-res=1920x1036 / interlace=0 / total-frames=138288 / level-idc=0 / high-tier=1 / uhd-bd=0 / ref=5 / no-allow-non-conformance / no-repeat-headers / annexb / no-aud / no-hrd / info / hash=0 / no-temporal-layers / no-open-gop / min-keyint=1 / keyint=360 / gop-lookahead=0 / bframes=8 / b-adapt=2 / b-pyramid / bframe-bias=0 / rc-lookahead=60 / lookahead-slices=4 / scenecut=40 / no-intra-refresh / ctu=32 / min-cu-size=8 / no-rect / no-amp / max-tu-size=16 / tu-inter-depth=2 / tu-intra-depth=2 / limit-tu=4 / rdoq-level=2 / dynamic-rd=0.00 / ssim-rd / signhide / no-tskip / nr-intra=0 / nr-inter=0 / no-constrained-intra / no-strong-intra-smoothing / max-merge=3 / limit-refs=2 / limit-modes / me=3 / subme=5 / merange=25 / temporal-mvp / weightp / weightb / no-analyze-src-pics / deblock=-1:-1 / no-sao / no-sao-non-deblock / rd=4 / no-early-skip / no-rskip / no-fast-intra / no-tskip-fast / no-cu-lossless / b-intra / no-splitrd-skip / rdpenalty=1 / psy-rd=0.00 / psy-rdoq=5.00 / no-rd-refine / analysis-reuse-mode=0 / no-lossless / cbqpoffs=-2 / crqpoffs=-2 / rc=crf / crf=19.0 / qcomp=0.65 / qpstep=4 / stats-write=0 / stats-read=0 / ipratio=1.40 / pbratio=1.30 / aq-mode=2 / aq-strength=0.90 / cutree / zone-count=0 / no-strict-cbr / qg-size=16 / no-rc-grain / qpmax=69 / qpmin=0 / no-const-vbv / sar=1 / overscan=0 / videoformat=5 / range=0 / colorprim=1 / transfer=2 / colormatrix=2 / chromaloc=0 / display-window=0 / max-cll=0,0 / min-luma=0 / max-luma=1023 / log2-max-poc-lsb=8 / vui-timing-info / vui-hrd-info / slices=1 / no-opt-qp-pps / no-opt-ref-list-length-pps / no-multi-pass-opt-rps / scenecut-bias=0.05 / no-opt-cu-delta-qp / no-aq-motion / no-hdr / no-hdr-opt / no-dhdr10-opt / analysis-reuse-level=5 / scale-factor=0 / refine-intra=0 / refine-inter=0 / refine-mv=0 / no-limit-sao / ctu-info=0 / no-lowpass-dct / refine-mv-type=0 / copy-pic=1
Default                        : Yes
Forced                         : No
Color range                    : Limited
Color primaries                : BT.709

Audio
ID                             : 2
Format                         : AC-3
Format/Info                    : Audio Coding 3
Commercial name                : Dolby Digital
Codec ID                       : A_AC3
Duration                       : 1 h 36 min
Bit rate mode                  : Constant
Bit rate                       : 640 kb/s
Channel(s)                     : 6 channels
Channel layout                 : L R C LFE Ls Rs
Sampling rate                  : 48.0 kHz
Frame rate                     : 31.250 FPS (1536 SPF)
Compression mode               : Lossy
Stream size                    : 440 MiB (9%)
Service kind                   : Complete Main
Default                        : Yes
Forced                         : No

Text #1
ID                             : 3
Format                         : UTF-8
Codec ID                       : S_TEXT/UTF8
Codec ID/Info                  : UTF-8 Plain Text
Duration                       : 1 h 28 min
Bit rate                       : 37 b/s
Count of elements              : 922
Stream size                    : 24.5 KiB (0%)
Title                          : chs
Language                       : Chinese
Default                        : No
Forced                         : No

Text #2
ID                             : 4
Format                         : ASS
Codec ID                       : S_TEXT/ASS
Codec ID/Info                  : Advanced Sub Station Alpha
Duration                       : 1 h 29 min
Bit rate                       : 115 b/s
Count of elements              : 934
Compression mode               : Lossless
Stream size                    : 75.5 KiB (0%)
Title                          : chs&eng
Language                       : Chinese
Default                        : Yes
Forced                         : Yes

Text #3
ID                             : 5
Format                         : UTF-8
Codec ID                       : S_TEXT/UTF8
Codec ID/Info                  : UTF-8 Plain Text
Duration                       : 1 h 28 min
Bit rate                       : 41 b/s
Count of elements              : 930
Stream size                    : 26.8 KiB (0%)
Title                          : eng
Language                       : English
Default                        : No
Forced                         : No

Menu
00:00:00.000                   : en:00:00:00.000
00:07:49.302                   : en:00:07:49.302
00:15:38.020                   : en:00:15:38.020
00:22:35.145                   : en:00:22:35.145
00:29:54.459                   : en:00:29:54.459
00:38:05.116                   : en:00:38:05.116
00:44:36.799                   : en:00:44:36.799
00:51:55.737                   : en:00:51:55.737
01:00:15.320                   : en:01:00:15.320
01:09:11.522                   : en:01:09:11.522
01:17:25.140                   : en:01:17:25.140
01:28:10.827                   : en:01:28:10.827


分享快乐!
回复

使用道具 举报

 
您需要登录后才可以回帖 登录 | 立即注册

本版积分规则

0关注

11粉丝

838帖子

广告位
经典RPG武侠手游,安卓首发。
  • 版块推荐
  • 百宝箱
推荐阅读更多+
会员达人更多+
广告位
经典RPG武侠手游,安卓首发。

信息推荐

更多+

最新信息

更多+

加入我们!分享快乐!

人人为我,我为人人!抵制吸血和收费分享行为!

从我做起!

只分享高品质影视资源

只求质量、不求数量、不抢首发!

Email:[email protected]

DHTCLUB - 高品质影视资源分享俱乐部