开启左侧

狂暴凶狮.Prooi.2016.2160p.WEB-DL.H264.AAC-DHTCLUB

[复制链接]
dhtclub 发表于 2021-4-4 11:41 | 显示全部楼层 |阅读模式 打印 上一主题 下一主题

狂暴凶狮Prooi(2016)4K 

简介在阿姆斯特丹,警方发现了被残忍杀害的一家人的尸体,警方对此案一时之间毫无头绪。但是阿姆斯特丹动物园的兽医Lizzie通过伤口怀疑这应该是一只大型的狮子所为。但最初Lizzie的猜测并没有受到警方的重视,直到越来越多的受害者以相同的方式被杀害,毫无疑问阿姆斯特丹已经成为了一位捕食者的狩猎场。警方指派猎人Jack和Lizzie一起对行凶的狮子进行追捕,而Lizzie的男友,一位电视台记者也在跟踪报道此案,Lizzie除了追查狮子的下落还担忧着男友的安全,而此时的狮子已经饥饿难忍…
导演迪克·麦斯
编剧迪克·麦斯
类型喜剧 惊悚 
地区荷兰 
语言荷兰语 
时长101分钟
资源大小4.9G
字幕语言内嵌简中 
豆瓣评分5.1
豆瓣链接https://movie.douban.com/subject/27150225/
IMDB评分5.2
IMDB链接https://www.imdb.com/title/tt4291700
演员表

狂暴凶狮 的主要演员表……

索菲·范·德温 / 艾比·侯斯 / 布里特·拉格尔 / 马克·福斯特 / 基斯·布特 / 克·赞德弗利特 / 维克多·利昂 / 马蒂金·哈特明克 / 麦克·利伯农 / 劳斯·斯坦贝克 / 巴特·克莱文 / 罗恩·斯莱斯维克 / 马蒙·埃尔尤努西 / 阿尔弗雷德·范登赫维尔 / 里纳斯·克鲁尔 / 罗吉尔·席佩斯 / 罗伯特·布洛克兰 / 西奥·庞特 / 玛丽恩·克拉弗 / 梅林·莫勒鲁斯 / 塞尔玛·范斯·戴克 / 丹尼·范斯·普雷威尔 / 加仑·范斯·维塞姆
影片介绍

狂暴凶狮 的剧情介绍……

在阿姆斯特丹,警方发现了被残忍杀害的一家人的尸体,警方对此案一时之间毫无头绪。但是阿姆斯特丹动物园的兽医Lizzie通过伤口怀疑这应该是一只大型的狮子所为。但最初Lizzie的猜测并没有受到警方的重视,直到越来越多的受害者以相同的方式被杀害,毫无疑问阿姆斯特丹已经成为了一位捕食者的狩猎场。警方指派猎人Jack和Lizzie一起对行凶的狮子进行追捕,而Lizzie的男友,一位电视台记者也在跟踪报道此案,Lizzie除了追查狮子的下落还担忧着男友的安全,而此时的狮子已经饥饿难忍…
资源下载
1080i/p下载地址 点击查看
4K下载地址 点击查看
《狂暴凶狮》下载帮助和注意事项:
1、本站所有资源均为磁力链资源,无需注册登录即可查看下载地址
2、使用迅雷或网盘离线是无法下载资源的!必须使用BT下载工具,如果没有下载速度请添加我们提供的tracker服务器列表
3、推荐BT下载工具:比特彗星qbittorrentutorrent 内网使用路由请做好端口映射或开启UPnP
4、不管选择哪种P2P下载工具,都希望你能在条件允许的前提下不要限速多做种分享上传一段时间
5、刻意限制P2P下载工具的上传速度(此行为俗称:吸血)将影响你的下载速度 防止被吸血和防止运营商过滤的教程
6、人人为我我为人人,只有大家不限制上传速度,大家才能共同获得更快的下载速度,这才是P2P应有的良性循环!
7、所有资源来源网络,本站服务器不存储任何种子文件,如侵犯您的权益,请联系 [email protected] 删除资源
点评&资源版本介绍
 
异度空间 大海战2 硬核RTS海战游戏-画面党手残党慎入.jpg
General
Format                         : MPEG-4
Format profile                 : Base Media
Codec ID                       : isom (isom/iso2/avc1/mp41)
File size                      : 4.75 GiB
Duration                       : 1 h 40 min
Overall bit rate               : 6 783 kb/s
Writing application            : Lavf58.10.100

Video
ID                             : 1
Format                         : AVC
Format/Info                    : Advanced Video Codec
Format profile                 : [email protected]
Format settings                : CABAC / 3 Ref Frames
Format settings, CABAC         : Yes
Format settings, Reference fra : 3 frames
Codec ID                       : avc1
Codec ID/Info                  : Advanced Video Coding
Duration                       : 1 h 40 min
Bit rate                       : 6 585 kb/s
Width                          : 3 840 pixels
Height                         : 1 608 pixels
Display aspect ratio           : 2.40:1
Frame rate mode                : Constant
Frame rate                     : 25.000 FPS
Color space                    : YUV
Chroma subsampling             : 4:2:0
Bit depth                      : 8 bits
Scan type                      : Progressive
Bits/(Pixel*Frame)             : 0.043
Stream size                    : 4.61 GiB (97%)
Color range                    : Limited
Color primaries                : BT.709
Transfer characteristics       : BT.709
Matrix coefficients            : BT.709
Codec configuration box        : avcC

Audio
ID                             : 2
Format                         : AAC LC
Format/Info                    : Advanced Audio Codec Low Complexity
Codec ID                       : mp4a-40-2
Duration                       : 1 h 40 min
Bit rate mode                  : Constant
Bit rate                       : 192 kb/s
Channel(s)                     : 2 channels
Channel layout                 : L R
Sampling rate                  : 44.1 kHz
Frame rate                     : 43.066 FPS (1024 SPF)
Compression mode               : Lossy
Stream size                    : 136 MiB (3%)
Default                        : Yes
Alternate group                : 1

标签:狂暴2016
分享快乐!
回复

使用道具 举报

 
您需要登录后才可以回帖 登录 | 立即注册

本版积分规则

0关注

11粉丝

838帖子

广告位
经典RPG武侠手游,安卓首发。
  • 版块推荐
  • 百宝箱
推荐阅读更多+
会员达人更多+
广告位
经典RPG武侠手游,安卓首发。

信息推荐

更多+

最新信息

更多+

加入我们!分享快乐!

人人为我,我为人人!抵制吸血和收费分享行为!

从我做起!

只分享高品质影视资源

只求质量、不求数量、不抢首发!

Email:[email protected]

DHTCLUB - 高品质影视资源分享俱乐部