开启左侧

银河护卫队2.Guardians.of.the.Galaxy.Vol.2.2017.BluRay.2160p.HDR-DHTCLUB

[复制链接]
dhtclub 发表于 2021-4-4 11:54 | 显示全部楼层 |阅读模式 打印 上一主题 下一主题

银河护卫队2Guardians of the Galaxy Vol. 2(2017)4K 

简介火箭浣熊(布莱德利·库珀 Bradley Cooper 饰)偷走了大祭司阿耶莎(伊丽莎白·德比齐 Elizabeth Debicki 饰)的能量电池,包括星爵(克里斯·帕拉特 Chris Pratt 饰)、卡魔拉(佐伊·索尔达娜 Zoe Saldana 饰)、德拉克斯(戴夫·巴蒂斯塔 Dave Bautista 饰)在内的一行人遭到了后者派出的舰队的袭击。一个神秘人物乘坐着飞船救下了银河护卫队的众人,而驾驶着飞船的不是别人,竟然正是星爵的亲生父亲伊戈(库尔特·拉塞尔 Kurt Russell 饰)。
  在伊戈的带领下,星爵、卡魔拉和德拉克斯来到了由伊戈一手制造的星球上,而剩下的成员们则着手修复损坏的飞船。那边厢,阿耶莎委托勇度(迈克尔·鲁克 Michael Rooker 饰)抓住星爵替自己报仇,而卡魔拉亦渐渐发现了伊戈和善面目下隐藏的巨大阴谋。
导演詹姆斯·古恩
编剧詹姆斯·古恩 / 丹·阿布内特 / 安迪·兰宁
类型动作 科幻 冒险 
地区美国 
语言普通话 英语 
时长136分钟
资源大小23.6G
字幕语言内嵌简中 内嵌繁中 内嵌英语 内嵌简中英双语 内嵌繁中英双语 
豆瓣评分8.0
豆瓣链接https://movie.douban.com/subject/25937854/
IMDB评分7.6
IMDB链接https://www.imdb.com/title/tt3896198
演员表

银河护卫队2 的主要演员表……

克里斯·帕拉特 / 佐伊·索尔达娜 / 戴夫·巴蒂斯塔 / 范·迪塞尔 / 布莱德利·库珀 / 凯伦·吉兰 / 迈克尔·鲁克 / 庞·克莱门捷夫 / 伊丽莎白·德比茨基 / 肖恩·古恩 / 库尔特·拉塞尔 / 克里斯·沙利文 / 大卫·哈塞尔霍夫 / 西尔维斯特·史泰龙 / 杨紫琼
影片介绍

银河护卫队2 的剧情介绍……

火箭浣熊(布莱德利·库珀 Bradley Cooper 饰)偷走了大祭司阿耶莎(伊丽莎白·德比齐 Elizabeth Debicki 饰)的能量电池,包括星爵(克里斯·帕拉特 Chris Pratt 饰)、卡魔拉(佐伊·索尔达娜 Zoe Saldana 饰)、德拉克斯(戴夫·巴蒂斯塔 Dave Bautista 饰)在内的一行人遭到了后者派出的舰队的袭击。一个神秘人物乘坐着飞船救下了银河护卫队的众人,而驾驶着飞船的不是别人,竟然正是星爵的亲生父亲伊戈(库尔特·拉塞尔 Kurt Russell 饰)。
  在伊戈的带领下,星爵、卡魔拉和德拉克斯来到了由伊戈一手制造的星球上,而剩下的成员们则着手修复损坏的飞船。那边厢,阿耶莎委托勇度(迈克尔·鲁克 Michael Rooker 饰)抓住星爵替自己报仇,而卡魔拉亦渐渐发现了伊戈和善面目下隐藏的巨大阴谋。
资源下载
1080i/p下载地址 点击查看
4K下载地址 点击查看
《银河护卫队2》下载帮助和注意事项:
1、本站所有资源均为磁力链资源,无需注册登录即可查看下载地址
2、使用迅雷或网盘离线是无法下载资源的!必须使用BT下载工具,如果没有下载速度请添加我们提供的tracker服务器列表
3、推荐BT下载工具:比特彗星qbittorrentutorrent 内网使用路由请做好端口映射或开启UPnP
4、不管选择哪种P2P下载工具,都希望你能在条件允许的前提下不要限速多做种分享上传一段时间
5、刻意限制P2P下载工具的上传速度(此行为俗称:吸血)将影响你的下载速度 防止被吸血和防止运营商过滤的教程
6、人人为我我为人人,只有大家不限制上传速度,大家才能共同获得更快的下载速度,这才是P2P应有的良性循环!
7、所有资源来源网络,本站服务器不存储任何种子文件,如侵犯您的权益,请联系 [email protected] 删除资源
点评&资源版本介绍
 
银河护卫队2 大海战2 硬核RTS海战游戏-画面党手残党慎入.jpg
General
Unique ID                      : 206722398032294503649673652260760420754 (0x9B854920A8D02BA0B2D2EC2CA7A78192)
Format                         : Matroska
Format version                 : Version 4
File size                      : 23.5 GiB
Duration                       : 2 h 15 min
Overall bit rate mode          : Variable
Overall bit rate               : 24.8 Mb/s
Movie name                     : Guardians of the Galaxy Vol. 2 4K
Encoded date                   : UTC 2017-10-18 11:26:03
Writing application            : mkvmerge v17.0.0 ('Be Ur Friend') 64-bit
Writing library                : libebml v1.3.5 + libmatroska v1.4.8

Video
ID                             : 1
Format                         : HEVC
Format/Info                    : High Efficiency Video Coding
Format profile                 : Main [email protected]@High
HDR format                     : SMPTE ST 2086, HDR10 compatible
Codec ID                       : V_MPEGH/ISO/HEVC
Duration                       : 2 h 15 min
Bit rate                       : 13.2 Mb/s
Width                          : 3 840 pixels
Height                         : 1 604 pixels
Display aspect ratio           : 2.40:1
Frame rate mode                : Constant
Frame rate                     : 23.976 (24000/1001) FPS
Color space                    : YUV
Chroma subsampling             : 4:2:0 (Type 2)
Bit depth                      : 10 bits
Bits/(Pixel*Frame)             : 0.090
Stream size                    : 12.5 GiB (53%)
Writing library                : x265 2.5+11-d58761d8db4a:[Windows][GCC 7.1.0][64 bit] 10bit
Encoding settings              : cpuid=1173503 / frame-threads=5 / numa-pools=36 / wpp / no-pmode / no-pme / no-psnr / no-ssim / log-level=2 / input-csp=1 / input-res=3840x1604 / interlace=0 / total-frames=0 / level-idc=51 / high-tier=1 / uhd-bd=0 / ref=5 / no-allow-non-conformance / repeat-headers / annexb / aud / hrd / info / hash=0 / no-temporal-layers / no-open-gop / min-keyint=1 / keyint=360 / bframes=9 / b-adapt=2 / b-pyramid / bframe-bias=0 / rc-lookahead=60 / lookahead-slices=4 / scenecut=40 / no-intra-refresh / ctu=32 / min-cu-size=8 / no-rect / no-amp / max-tu-size=32 / tu-inter-depth=2 / tu-intra-depth=2 / limit-tu=3 / rdoq-level=2 / dynamic-rd=0.00 / ssim-rd / signhide / no-tskip / nr-intra=0 / nr-inter=0 / no-constrained-intra / no-strong-intra-smoothing / max-merge=3 / limit-refs=2 / limit-modes / me=3 / subme=5 / merange=25 / temporal-mvp / weightp / weightb / no-analyze-src-pics / deblock=-1:-1 / no-sao / no-sao-non-deblock / rd=4 / no-early-skip / no-rskip / no-fast-intra / no-tskip-fast / no-cu-lossless / b-intra / no-splitrd-skip / rdpenalty=1 / psy-rd=0.00 / psy-rdoq=8.00 / no-rd-refine / analysis-reuse-mode=0 / no-lossless / cbqpoffs=-3 / crqpoffs=-3 / rc=crf / crf=17.0 / qcomp=0.75 / qpstep=4 / stats-write=0 / stats-read=0 / vbv-maxrate=100000 / vbv-bufsize=100000 / vbv-init=0.9 / crf-max=0.0 / crf-min=0.0 / ipratio=1.40 / pbratio=1.20 / aq-mode=3 / aq-strength=0.80 / cutree / zone-count=0 / no-strict-cbr / qg-size=32 / no-rc-grain / qpmax=69 / qpmin=0 / no-const-vbv / sar=1 / overscan=0 / videoformat=5 / range=0 / colorprim=9 / transfer=16 / colormatrix=9 / chromaloc=1 / chromaloc-top=2 / chromaloc-bottom=2 / display-window=0 / master-display=G(13250,34500)B(7500,3000)R(34000,16000)WP(15635,16450)L(10000000,50) / max-cll=0,0 / min-luma=0 / max-luma=1023 / log2-max-poc-lsb=8 / vui-timing-info / vui-hrd-info / slices=1 / opt-qp-pps / opt-ref-list-length-pps / no-multi-pass-opt-rps / scenecut-bias=0.05 / no-opt-cu-delta-qp / no-aq-motion / hdr / hdr-opt / no-dhdr10-opt / analysis-reuse-level=5 / scale-factor=0 / refine-intra=0 / refine-inter=0 / refine-mv=0 / no-limit-sao / ctu-info=0
Default                        : Yes
Forced                         : No
Color range                    : Limited
Color primaries                : BT.2020
Transfer characteristics       : PQ
Matrix coefficients            : BT.2020 non-constant
Mastering display color primar : Display P3
Mastering display luminance    : min: 0.0050 cd/m2, max: 1000 cd/m2

Audio #1
ID                             : 2
Format                         : MLP FBA 16-ch
Format/Info                    : Meridian Lossless Packing FBA with 16-channel presentation
Commercial name                : Dolby TrueHD with Dolby Atmos
Codec ID                       : A_TRUEHD
Duration                       : 2 h 15 min
Bit rate mode                  : Variable
Bit rate                       : 7 508 kb/s
Maximum bit rate               : 11.3 Mb/s
Channel(s)                     : 8 channels
Channel layout                 : L R C LFE Ls Rs Lb Rb
Sampling rate                  : 48.0 kHz
Frame rate                     : 1 200.000 FPS (40 SPF)
Compression mode               : Lossless
Stream size                    : 7.12 GiB (30%)
Title                          : 英语全景声
Language                       : English
Default                        : Yes
Forced                         : No
Number of dynamic objects      : 13
Bed channel count              : 1 channel
Bed channel configuration      : LFE

Audio #2
ID                             : 3
Format                         : AC-3
Format/Info                    : Audio Coding 3
Commercial name                : Dolby Digital
Codec ID                       : A_AC3
Duration                       : 2 h 15 min
Bit rate mode                  : Constant
Bit rate                       : 640 kb/s
Channel(s)                     : 6 channels
Channel layout                 : L R C LFE Ls Rs
Sampling rate                  : 48.0 kHz
Frame rate                     : 31.250 FPS (1536 SPF)
Compression mode               : Lossy
Stream size                    : 622 MiB (3%)
Title                          : 英语
Language                       : English
Service kind                   : Complete Main
Default                        : No
Forced                         : No

Audio #3
ID                             : 4
Format                         : MLP FBA
Format/Info                    : Meridian Lossless Packing FBA
Commercial name                : Dolby TrueHD
Codec ID                       : A_TRUEHD
Duration                       : 2 h 15 min
Bit rate mode                  : Variable
Bit rate                       : 2 153 kb/s
Maximum bit rate               : 3 768 kb/s
Channel(s)                     : 8 channels
Channel layout                 : L R C LFE Ls Rs Lb Rb
Sampling rate                  : 48.0 kHz
Frame rate                     : 1 200.000 FPS (40 SPF)
Compression mode               : Lossless
Stream size                    : 2.04 GiB (9%)
Title                          : 国语TrueHD
Language                       : Chinese
Default                        : No
Forced                         : No

Audio #4
ID                             : 5
Format                         : AC-3
Format/Info                    : Audio Coding 3
Commercial name                : Dolby Digital
Codec ID                       : A_AC3
Duration                       : 2 h 15 min
Bit rate mode                  : Constant
Bit rate                       : 640 kb/s
Channel(s)                     : 6 channels
Channel layout                 : L R C LFE Ls Rs
Sampling rate                  : 48.0 kHz
Frame rate                     : 31.250 FPS (1536 SPF)
Compression mode               : Lossy
Stream size                    : 622 MiB (3%)
Title                          : 国语
Language                       : Chinese
Service kind                   : Complete Main
Default                        : No
Forced                         : No

Text #1
ID                             : 6
Format                         : PGS
Muxing mode                    : zlib
Codec ID                       : S_HDMV/PGS
Codec ID/Info                  : Picture based subtitle format used on BDs/HD-DVDs
Duration                       : 2 h 14 min
Bit rate                       : 36.1 kb/s
Count of elements              : 3946
Stream size                    : 34.8 MiB (0%)
Title                          : 英文
Language                       : English
Default                        : Yes
Forced                         : No

Text #2
ID                             : 7
Format                         : PGS
Muxing mode                    : zlib
Codec ID                       : S_HDMV/PGS
Codec ID/Info                  : Picture based subtitle format used on BDs/HD-DVDs
Duration                       : 2 h 15 min
Bit rate                       : 179 kb/s
Count of elements              : 5913
Stream size                    : 173 MiB (1%)
Title                          : 国配简中特效黑边内
Language                       : Chinese
Default                        : No
Forced                         : No

Text #3
ID                             : 8
Format                         : PGS
Muxing mode                    : zlib
Codec ID                       : S_HDMV/PGS
Codec ID/Info                  : Picture based subtitle format used on BDs/HD-DVDs
Duration                       : 2 h 15 min
Bit rate                       : 174 kb/s
Count of elements              : 6027
Stream size                    : 169 MiB (1%)
Title                          : 简中特效黑边内
Language                       : Chinese
Default                        : No
Forced                         : No

Text #4
ID                             : 9
Format                         : PGS
Muxing mode                    : zlib
Codec ID                       : S_HDMV/PGS
Codec ID/Info                  : Picture based subtitle format used on BDs/HD-DVDs
Duration                       : 2 h 15 min
Bit rate                       : 174 kb/s
Count of elements              : 6027
Stream size                    : 169 MiB (1%)
Title                          : 繁中特效黑边内
Language                       : Chinese
Default                        : No
Forced                         : No

Text #5
ID                             : 10
Format                         : PGS
Muxing mode                    : zlib
Codec ID                       : S_HDMV/PGS
Codec ID/Info                  : Picture based subtitle format used on BDs/HD-DVDs
Duration                       : 2 h 15 min
Bit rate                       : 206 kb/s
Count of elements              : 6028
Stream size                    : 199 MiB (1%)
Title                          : 简英特效黑边内
Language                       : Chinese
Default                        : No
Forced                         : No

Text #6
ID                             : 11
Format                         : PGS
Muxing mode                    : zlib
Codec ID                       : S_HDMV/PGS
Codec ID/Info                  : Picture based subtitle format used on BDs/HD-DVDs
Duration                       : 2 h 15 min
Bit rate                       : 206 kb/s
Count of elements              : 6028
Stream size                    : 199 MiB (1%)
Title                          : 繁英特效黑边内
Language                       : Chinese
Default                        : No
Forced                         : No

Text #7
ID                             : 12
Format                         : PGS
Muxing mode                    : zlib
Codec ID                       : S_HDMV/PGS
Codec ID/Info                  : Picture based subtitle format used on BDs/HD-DVDs
Duration                       : 2 h 14 min
Bit rate                       : 20.7 kb/s
Count of elements              : 3290
Stream size                    : 19.9 MiB (0%)
Title                          : 原盘中文繁体
Language                       : Chinese
Default                        : No
Forced                         : No

Text #8
ID                             : 13
Format                         : PGS
Muxing mode                    : zlib
Codec ID                       : S_HDMV/PGS
Codec ID/Info                  : Picture based subtitle format used on BDs/HD-DVDs
Duration                       : 2 h 14 min
Bit rate                       : 17.7 kb/s
Count of elements              : 3176
Stream size                    : 17.0 MiB (0%)
Title                          : 原盘中文繁体
Language                       : Chinese
Default                        : No
Forced                         : No

Menu
00:00:00.000                   : en:Chapter 01
00:09:56.178                   : en:Chapter 02
00:15:10.117                   : en:Chapter 03
00:22:14.082                   : en:Chapter 04
00:32:33.701                   : en:Chapter 05
00:36:52.126                   : en:Chapter 06
00:42:29.171                   : en:Chapter 07
00:48:03.463                   : en:Chapter 08
00:53:18.904                   : en:Chapter 09
00:58:45.939                   : en:Chapter 10
01:05:52.239                   : en:Chapter 11
01:11:12.434                   : en:Chapter 12
01:18:43.593                   : en:Chapter 13
01:23:55.321                   : en:Chapter 14
01:30:24.752                   : en:Chapter 15
01:39:36.178                   : en:Chapter 16
01:47:06.211                   : en:Chapter 17
01:54:21.604                   : en:Chapter 18
01:58:53.709                   : en:Chapter 19
02:07:13.459                   : en:Chapter 20


分享快乐!
回复

使用道具 举报

 
您需要登录后才可以回帖 登录 | 立即注册

本版积分规则

0关注

11粉丝

838帖子

广告位
经典RPG武侠手游,安卓首发。
  • 版块推荐
  • 百宝箱
推荐阅读更多+
会员达人更多+
广告位
经典RPG武侠手游,安卓首发。

信息推荐

更多+

最新信息

更多+

加入我们!分享快乐!

人人为我,我为人人!抵制吸血和收费分享行为!

从我做起!

只分享高品质影视资源

只求质量、不求数量、不抢首发!

Email:[email protected]

DHTCLUB - 高品质影视资源分享俱乐部