开启左侧

百鸟朝凤.Song.of.the.Phoenix.2013.4K.WEB-DL.H265.DDP2.0-DHTCLUB

[复制链接]
dhtclub 发表于 2021-4-4 14:05 | 显示全部楼层 |阅读模式 打印 上一主题 下一主题

百鸟朝凤Song of the Phoenix(2013~2011)4K 

简介老一代唢呐艺人焦三爷(陶泽如 饰)是个外冷内热的老人,看起来严肃古板,其实心怀热血。影片表现了在社会变革、民心浮躁的年代里,新老两代唢呐艺人为了信念的坚守所产生的真挚的师徒情、父子情、兄弟情。
  本片改编自肖江虹同名小说。
导演吴天明
编剧吴天明 / 罗雪莹 / 肖江虹
类型剧情 音乐 
地区中国内地 
语言普通话 
时长104分钟
资源大小12.4G
字幕语言内嵌简中英双语 
豆瓣评分8.2
豆瓣链接https://movie.douban.com/subject/10831445/
IMDB评分7.0
IMDB链接https://www.imdb.com/title/tt3214392
演员表

百鸟朝凤 的主要演员表……

陶泽如 / 李岷城 / 嵇波 / 胡先煦 / 郑伟 / 迟蓬 / 袁中方 / 墨阳 / 张喜前 / 谭群 / 王长玲 / 周天羽 / 张双成 / 许还山
影片介绍

百鸟朝凤 的剧情介绍……

老一代唢呐艺人焦三爷(陶泽如 饰)是个外冷内热的老人,看起来严肃古板,其实心怀热血。影片表现了在社会变革、民心浮躁的年代里,新老两代唢呐艺人为了信念的坚守所产生的真挚的师徒情、父子情、兄弟情。
  本片改编自肖江虹同名小说。
资源下载
1080i/p下载地址 点击查看
4K下载地址 点击查看
《百鸟朝凤》下载帮助和注意事项:
1、本站所有资源均为磁力链资源,无需注册登录即可查看下载地址
2、使用迅雷或网盘离线是无法下载资源的!必须使用BT下载工具,如果没有下载速度请添加我们提供的tracker服务器列表
3、推荐BT下载工具:比特彗星qbittorrentutorrent 内网使用路由请做好端口映射或开启UPnP
4、不管选择哪种P2P下载工具,都希望你能在条件允许的前提下不要限速多做种分享上传一段时间
5、刻意限制P2P下载工具的上传速度(此行为俗称:吸血)将影响你的下载速度 防止被吸血和防止运营商过滤的教程
6、人人为我我为人人,只有大家不限制上传速度,大家才能共同获得更快的下载速度,这才是P2P应有的良性循环!
7、所有资源来源网络,本站服务器不存储任何种子文件,如侵犯您的权益,请联系 [email protected] 删除资源
点评&资源版本介绍
 
百鸟朝凤 大海战2 硬核RTS海战游戏-画面党手残党慎入.jpg
General
Unique ID                      : 34272998305181291127111212789434730416 (0x19C8BD477B8CBD5EE2394D063038C7B0)
Format                         : Matroska
Format version                 : Version 4
File size                      : 12.3 GiB
Duration                       : 1 h 43 min
Overall bit rate               : 17.0 Mb/s
Encoded date                   : UTC 2021-03-05 13:01:46
Writing application            : mkvmerge v51.0.0 ('I Wish') 64-bit
Writing library                : libebml v1.4.0 + libmatroska v1.6.2

Video
ID                             : 1
Format                         : HEVC
Format/Info                    : High Efficiency Video Coding
Format profile                 : [email protected]@High
Codec ID                       : V_MPEGH/ISO/HEVC
Duration                       : 1 h 43 min
Bit rate                       : 16.9 Mb/s
Width                          : 3 840 pixels
Height                         : 1 616 pixels
Display aspect ratio           : 2.40:1
Frame rate mode                : Constant
Frame rate                     : 25.000 FPS
Color space                    : YUV
Chroma subsampling             : 4:2:0
Bit depth                      : 8 bits
Bits/(Pixel*Frame)             : 0.109
Stream size                    : 12.2 GiB (99%)
Default                        : Yes
Forced                         : No

Audio
ID                             : 2
Format                         : E-AC-3
Format/Info                    : Enhanced AC-3
Commercial name                : Dolby Digital Plus
Codec ID                       : A_EAC3
Duration                       : 1 h 43 min
Bit rate mode                  : Constant
Bit rate                       : 96.0 kb/s
Channel(s)                     : 2 channels
Channel layout                 : L R
Sampling rate                  : 48.0 kHz
Frame rate                     : 31.250 FPS (1536 SPF)
Compression mode               : Lossy
Stream size                    : 71.2 MiB (1%)
Service kind                   : Complete Main
Default                        : Yes
Forced                         : No


分享快乐!
回复

使用道具 举报

 
您需要登录后才可以回帖 登录 | 立即注册

本版积分规则

0关注

11粉丝

838帖子

广告位
经典RPG武侠手游,安卓首发。
  • 版块推荐
  • 百宝箱
推荐阅读更多+
会员达人更多+
广告位
经典RPG武侠手游,安卓首发。

信息推荐

更多+

最新信息

更多+

加入我们!分享快乐!

人人为我,我为人人!抵制吸血和收费分享行为!

从我做起!

只分享高品质影视资源

只求质量、不求数量、不抢首发!

Email:[email protected]

DHTCLUB - 高品质影视资源分享俱乐部