开启左侧

十二猴子.Twelve.Monkeys.1995.BluRay.1080p.DTS-HD.MA5.1.x265.10bit-DHTCLUB

[复制链接]
dhtclub 发表于 2021-4-6 17:23 | 显示全部楼层 |阅读模式 打印 上一主题 下一主题

十二猴子Twelve Monkeys(90年代)1080P 

简介公元2035年,人类被12只猴子军研制的一种病毒侵袭,大部分人类都在这场病毒灾难中死亡,只有少数人侥幸逃生,但也只能在阴暗的地下,苟且偷生。
  科学家们决定派人穿越时光回到1996年追查12只猴子军的来历。囚徒詹姆斯·科尔(布鲁斯·威利斯 Bruce Willis 饰)被 挑选为志愿者。阴差阳错,科尔回到了1990年,当他向当时的人们描述未来的那场大灾难时,被当作精神病捉了起来并被医生凯瑟琳·雪莉(玛德琳·斯通 Madeleine Stowe 饰)诊断为精神分裂症。科尔在病友杰弗里·戈因斯帮助下逃脱,回到了未来。因为没查清12只猴子军的来历,科尔再次被派回了1996年。
  科尔这次发现了12只猴子军的起源地在费城,他找到了医生凯瑟琳,二人一起展开了追查12只猴子军的冒险之旅!
导演特瑞·吉列姆
编剧克里斯·马克 / 大卫·韦伯·皮普尔斯 / 珍妮特·皮普尔斯
类型科幻 惊悚 悬疑 
地区美国 
语言普通话 英语 
时长130分钟
资源大小15G
字幕语言内嵌简中 内嵌繁中 内嵌英语 内嵌简中英双语 内嵌繁中英双语 
豆瓣评分8.2
豆瓣链接https://movie.douban.com/subject/1298744/
IMDB评分8.0
IMDB链接https://www.imdb.com/title/tt0114746
演员表

十二猴子 的主要演员表……

布鲁斯·威利斯 / 布拉德·皮特 / 大卫·摩斯 / 克里斯托弗·普卢默 / 乔恩·塞达 / 玛德琳·斯托 / Joseph Melito / 迈克尔·禅斯 / 弗农·坎贝尔 / H. Michael Walls / Bob Adrian / 西蒙·琼斯 / Carol Florence / Bill Raymond / Ernest Abuba / Irma St. Paule / 乔伊佩里洛 / Bruce Kirkpatrick
影片介绍

十二猴子 的剧情介绍……

公元2035年,人类被12只猴子军研制的一种病毒侵袭,大部分人类都在这场病毒灾难中死亡,只有少数人侥幸逃生,但也只能在阴暗的地下,苟且偷生。
  科学家们决定派人穿越时光回到1996年追查12只猴子军的来历。囚徒詹姆斯·科尔(布鲁斯·威利斯 Bruce Willis 饰)被 挑选为志愿者。阴差阳错,科尔回到了1990年,当他向当时的人们描述未来的那场大灾难时,被当作精神病捉了起来并被医生凯瑟琳·雪莉(玛德琳·斯通 Madeleine Stowe 饰)诊断为精神分裂症。科尔在病友杰弗里·戈因斯帮助下逃脱,回到了未来。因为没查清12只猴子军的来历,科尔再次被派回了1996年。
  科尔这次发现了12只猴子军的起源地在费城,他找到了医生凯瑟琳,二人一起展开了追查12只猴子军的冒险之旅!
资源下载
1080i/p下载地址 点击查看
4K下载地址 点击查看
《十二猴子》下载帮助和注意事项:
1、本站所有资源均为磁力链资源,无需注册登录即可查看下载地址
2、使用迅雷或网盘离线是无法下载资源的!必须使用BT下载工具,如果没有下载速度请添加我们提供的tracker服务器列表
3、推荐BT下载工具:比特彗星qbittorrentutorrent 内网使用路由请做好端口映射或开启UPnP
4、不管选择哪种P2P下载工具,都希望你能在条件允许的前提下不要限速多做种分享上传一段时间
5、刻意限制P2P下载工具的上传速度(此行为俗称:吸血)将影响你的下载速度 防止被吸血和防止运营商过滤的教程
6、人人为我我为人人,只有大家不限制上传速度,大家才能共同获得更快的下载速度,这才是P2P应有的良性循环!
7、所有资源来源网络,本站服务器不存储任何种子文件,如侵犯您的权益,请联系 [email protected] 删除资源
点评&资源版本介绍
 
十二猴子 大海战2 硬核RTS海战游戏-画面党手残党慎入.jpg
General
Unique ID                      : 234092821691235922227275444174834926404 (0xB01CA33399F736CD2EABCDF601688344)
Format                         : Matroska
Format version                 : Version 4
File size                      : 14.9 GiB
Duration                       : 2 h 9 min
Overall bit rate mode          : Variable
Overall bit rate               : 16.4 Mb/s
Encoded date                   : UTC 2021-04-06 05:45:22
Writing application            : mkvmerge v53.0.0 ('Fool's Gold') 64-bit
Writing library                : libebml v1.4.1 + libmatroska v1.6.2

Video
ID                             : 1
Format                         : HEVC
Format/Info                    : High Efficiency Video Coding
Format profile                 : Main [email protected]@High
Codec ID                       : V_MPEGH/ISO/HEVC
Duration                       : 2 h 9 min
Bit rate                       : 11.7 Mb/s
Width                          : 1 920 pixels
Height                         : 1 038 pixels
Display aspect ratio           : 1.85:1
Frame rate mode                : Constant
Frame rate                     : 23.976 (24000/1001) FPS
Color space                    : YUV
Chroma subsampling             : 4:2:0
Bit depth                      : 10 bits
Bits/(Pixel*Frame)             : 0.246
Stream size                    : 10.6 GiB (71%)
Title                          : HEVC, [email protected]@High, 24/1.001 fps @ 11735 kbps
Writing library                : x265 3.4+14-gd419c7152:[Windows][GCC 10.2.0][64 bit] 10bit
Encoding settings              : cpuid=1111039 / frame-threads=4 / numa-pools=16 / wpp / pmode / pme / no-psnr / no-ssim / log-level=2 / input-csp=1 / input-res=1920x1038 / interlace=0 / total-frames=186334 / level-idc=51 / high-tier=1 / uhd-bd=0 / ref=5 / no-allow-non-conformance / no-repeat-headers / annexb / no-aud / no-hrd / info / hash=0 / no-temporal-layers / open-gop / min-keyint=24 / keyint=240 / gop-lookahead=0 / bframes=6 / b-adapt=2 / b-pyramid / bframe-bias=0 / rc-lookahead=40 / lookahead-slices=0 / scenecut=40 / hist-scenecut=0 / radl=0 / no-splice / no-intra-refresh / ctu=32 / min-cu-size=8 / no-rect / no-amp / max-tu-size=32 / tu-inter-depth=3 / tu-intra-depth=3 / limit-tu=4 / rdoq-level=2 / dynamic-rd=0.00 / no-ssim-rd / signhide / no-tskip / nr-intra=0 / nr-inter=0 / no-constrained-intra / no-strong-intra-smoothing / max-merge=4 / limit-refs=1 / limit-modes / me=3 / subme=4 / merange=25 / temporal-mvp / no-frame-dup / no-hme / weightp / weightb / no-analyze-src-pics / deblock=-3:-3 / no-sao / no-sao-non-deblock / rd=6 / selective-sao=0 / no-early-skip / rskip / no-fast-intra / no-tskip-fast / no-cu-lossless / b-intra / no-splitrd-skip / rdpenalty=0 / psy-rd=2.00 / psy-rdoq=1.00 / no-rd-refine / no-lossless / cbqpoffs=0 / crqpoffs=0 / rc=crf / crf=19.5 / qcomp=0.65 / qpstep=4 / stats-write=0 / stats-read=0 / vbv-maxrate=80000 / vbv-bufsize=80000 / vbv-init=0.9 / crf-max=0.0 / crf-min=0.0 / ipratio=1.40 / pbratio=1.30 / aq-mode=2 / aq-strength=0.85 / cutree / zone-count=0 / no-strict-cbr / qg-size=32 / no-rc-grain / qpmax=69 / qpmin=0 / no-const-vbv / sar=1 / overscan=0 / videoformat=5 / range=0 / colorprim=1 / transfer=1 / colormatrix=1 / chromaloc=0 / display-window=0 / cll=0,0 / min-luma=0 / max-luma=1023 / log2-max-poc-lsb=8 / vui-timing-info / vui-hrd-info / slices=1 / no-opt-qp-pps / no-opt-ref-list-length-pps / no-multi-pass-opt-rps / scenecut-bias=0.05 / hist-threshold=0.03 / no-opt-cu-delta-qp / no-aq-motion / no-hdr10 / no-hdr10-opt / no-dhdr10-opt / no-idr-recovery-sei / analysis-reuse-level=0 / analysis-save-reuse-level=0 / analysis-load-reuse-level=0 / scale-factor=0 / refine-intra=0 / refine-inter=0 / refine-mv=1 / refine-ctu-distortion=0 / no-limit-sao / ctu-info=0 / no-lowpass-dct / refine-analysis-type=0 / copy-pic=1 / max-ausize-factor=1.0 / no-dynamic-refine / no-single-sei / no-hevc-aq / no-svt / no-field / qp-adaptation-range=1.00 / no-scenecut-aware-qpconformance-window-offsets / right=0 / bottom=0 / decoder-max-rate=0
Language                       : English
Default                        : Yes
Forced                         : No
Color range                    : Limited
Color primaries                : BT.709
Transfer characteristics       : BT.709
Matrix coefficients            : BT.709

Audio #1
ID                             : 2
Format                         : DTS XLL
Format/Info                    : Digital Theater Systems
Commercial name                : DTS-HD Master Audio
Codec ID                       : A_DTS
Duration                       : 2 h 9 min
Bit rate mode                  : Variable
Bit rate                       : 3 725 kb/s
Channel(s)                     : 6 channels
Channel layout                 : C L R Ls Rs LFE
Sampling rate                  : 48.0 kHz
Frame rate                     : 93.750 FPS (512 SPF)
Bit depth                      : 24 bits
Compression mode               : Lossless
Stream size                    : 3.37 GiB (23%)
Title                          : English DTS-HD Master Audio 5.1 @ 3723 kbps
Language                       : English
Default                        : Yes
Forced                         : No

Audio #2
ID                             : 3
Format                         : AC-3
Format/Info                    : Audio Coding 3
Commercial name                : Dolby Digital
Codec ID                       : A_AC3
Duration                       : 2 h 9 min
Bit rate mode                  : Constant
Bit rate                       : 320 kb/s
Channel(s)                     : 2 channels
Channel layout                 : L R
Sampling rate                  : 48.0 kHz
Frame rate                     : 31.250 FPS (1536 SPF)
Compression mode               : Lossy
Stream size                    : 296 MiB (2%)
Title                          : English Dolby Digital Audio 2.0 @ 320 kbps  Commentary
Language                       : English
Service kind                   : Complete Main
Default                        : No
Forced                         : No

Audio #3
ID                             : 4
Format                         : AC-3
Format/Info                    : Audio Coding 3
Commercial name                : Dolby Digital
Codec ID                       : A_AC3
Duration                       : 2 h 9 min
Bit rate mode                  : Constant
Bit rate                       : 256 kb/s
Channel(s)                     : 2 channels
Channel layout                 : L R
Sampling rate                  : 48.0 kHz
Frame rate                     : 31.250 FPS (1536 SPF)
Compression mode               : Lossy
Stream size                    : 237 MiB (2%)
Title                          : 东影上译国配 DD 2.0 256Kbps
Language                       : Chinese
Service kind                   : Complete Main
Default                        : No
Forced                         : No

Audio #4
ID                             : 5
Format                         : AC-3
Format/Info                    : Audio Coding 3
Commercial name                : Dolby Digital
Codec ID                       : A_AC3
Duration                       : 2 h 9 min
Bit rate mode                  : Constant
Bit rate                       : 224 kb/s
Channel(s)                     : 2 channels
Channel layout                 : L R
Sampling rate                  : 48.0 kHz
Frame rate                     : 31.250 FPS (1536 SPF)
Compression mode               : Lossy
Stream size                    : 208 MiB (1%)
Title                          : 内参国语配音 DD 2.0 224Kbps
Language                       : Chinese
Service kind                   : Complete Main
Default                        : No
Forced                         : No

Text #1
ID                             : 6
Format                         : PGS
Muxing mode                    : zlib
Codec ID                       : S_HDMV/PGS
Codec ID/Info                  : Picture based subtitle format used on BDs/HD-DVDs
Duration                       : 2 h 7 min
Bit rate                       : 39.9 kb/s
Count of elements              : 3534
Stream size                    : 36.4 MiB (0%)
Title                          : Eng/SUP
Language                       : English
Default                        : No
Forced                         : No

Text #2
ID                             : 7
Format                         : PGS
Muxing mode                    : zlib
Codec ID                       : S_HDMV/PGS
Codec ID/Info                  : Picture based subtitle format used on BDs/HD-DVDs
Duration                       : 2 h 4 min
Bit rate                       : 32.8 kb/s
Count of elements              : 2147
Stream size                    : 29.1 MiB (0%)
Title                          : Chs/SUP  简体
Language                       : Chinese
Default                        : Yes
Forced                         : No

Text #3
ID                             : 8
Format                         : PGS
Muxing mode                    : zlib
Codec ID                       : S_HDMV/PGS
Codec ID/Info                  : Picture based subtitle format used on BDs/HD-DVDs
Duration                       : 2 h 4 min
Bit rate                       : 33.3 kb/s
Count of elements              : 2147
Stream size                    : 29.6 MiB (0%)
Title                          : Cht/SUP  繁体
Language                       : Chinese
Default                        : No
Forced                         : No

Text #4
ID                             : 9
Format                         : PGS
Muxing mode                    : zlib
Codec ID                       : S_HDMV/PGS
Codec ID/Info                  : Picture based subtitle format used on BDs/HD-DVDs
Duration                       : 2 h 4 min
Bit rate                       : 59.5 kb/s
Count of elements              : 2147
Stream size                    : 52.9 MiB (0%)
Title                          : Chs/SUP  简英双语
Language                       : Chinese
Default                        : No
Forced                         : No

Text #5
ID                             : 10
Format                         : PGS
Muxing mode                    : zlib
Codec ID                       : S_HDMV/PGS
Codec ID/Info                  : Picture based subtitle format used on BDs/HD-DVDs
Duration                       : 2 h 4 min
Bit rate                       : 60.1 kb/s
Count of elements              : 2147
Stream size                    : 53.4 MiB (0%)
Title                          : Cht/SUP  繁英双语
Language                       : Chinese
Default                        : No
Forced                         : No

Text #6
ID                             : 11
Format                         : PGS
Muxing mode                    : zlib
Codec ID                       : S_HDMV/PGS
Codec ID/Info                  : Picture based subtitle format used on BDs/HD-DVDs
Duration                       : 2 h 9 min
Bit rate                       : 50.9 kb/s
Count of elements              : 4438
Stream size                    : 47.2 MiB (0%)
Title                          : 英文评论字幕
Language                       : English
Default                        : No
Forced                         : No

Text #7
ID                             : 12
Format                         : PGS
Muxing mode                    : zlib
Codec ID                       : S_HDMV/PGS
Codec ID/Info                  : Picture based subtitle format used on BDs/HD-DVDs
Duration                       : 2 h 8 min
Bit rate                       : 20.6 kb/s
Count of elements              : 3618
Stream size                    : 19.0 MiB (0%)
Title                          : 繁体中文字幕
Language                       : Chinese
Default                        : No
Forced                         : No

Text #8
ID                             : 13
Format                         : PGS
Muxing mode                    : zlib
Codec ID                       : S_HDMV/PGS
Codec ID/Info                  : Picture based subtitle format used on BDs/HD-DVDs
Duration                       : 2 h 9 min
Bit rate                       : 27.7 kb/s
Count of elements              : 4786
Stream size                    : 25.6 MiB (0%)
Title                          : 简体中文评论
Language                       : Chinese
Default                        : No
Forced                         : No

Menu
00:00:00.000                   : :绗?01 绔?
00:10:55.738                   : :绗?02 绔?
00:21:27.995                   : :绗?03 绔?
00:29:26.181                   : :绗?04 绔?
00:42:04.188                   : :绗?05 绔?
00:53:13.273                   : :绗?06 绔?
01:06:31.571                   : :绗?07 绔?
01:15:49.670                   : :绗?08 绔?
01:26:02.407                   : :绗?09 绔?
01:36:25.321                   : :绗?10 绔?
01:46:31.635                   : :绗?11 绔?
01:57:31.544                   : :绗?12 绔?


标签:twelve19951080p
分享快乐!
回复

使用道具 举报

 
您需要登录后才可以回帖 登录 | 立即注册

本版积分规则

0关注

11粉丝

838帖子

广告位
经典RPG武侠手游,安卓首发。
  • 版块推荐
  • 百宝箱
推荐阅读更多+
会员达人更多+
广告位
经典RPG武侠手游,安卓首发。

信息推荐

更多+

最新信息

更多+

加入我们!分享快乐!

人人为我,我为人人!抵制吸血和收费分享行为!

从我做起!

只分享高品质影视资源

只求质量、不求数量、不抢首发!

Email:[email protected]

DHTCLUB - 高品质影视资源分享俱乐部