开启左侧

刺杀小说家.A.Writer's.Odyssey.2021.2160p.WEB-DL.H265.DDP5.1-DHTCLUB

[复制链接]
dhtclub 发表于 2021-4-10 00:51 | 显示全部楼层 |阅读模式 打印 上一主题 下一主题

刺杀小说家A Writer's Odyssey(2021)4K 

简介异世界皇都,天神赤发鬼残暴统治,滥杀无辜。少年空文因被赤发鬼追杀,决定奋起反击。在黑甲(郭京飞 饰)的指引下,踏上了凡人弑神之路。这是小说家路空文(董子健 饰)笔下的奇幻世界。没想到小说的进程,竟然影响着现实世界。这时一名男子(雷佳音 饰)接下了刺杀他的任务…
导演路阳
编剧陈舒 / 禹扬 / 秦海燕 / 路阳
类型动作 冒险 奇幻 
地区中国内地 
语言普通话 
时长130分钟
资源大小15.5G
字幕语言内嵌简中英双语 
豆瓣评分7.0
豆瓣链接https://movie.douban.com/subject/26826330/
IMDB评分6.6
IMDB链接https://www.imdb.com/title/tt9685342
演员表

刺杀小说家 的主要演员表……

雷佳音 / 杨幂 / 董子健 / 于和伟 / 郭京飞 / 佟丽娅 / 董洁 / 王圣迪 / 杨轶 / 刘天佐 / 李柄辉 / 萧子墨 / 双雪涛 / 徐建
影片介绍

刺杀小说家 的剧情介绍……

异世界皇都,天神赤发鬼残暴统治,滥杀无辜。少年空文因被赤发鬼追杀,决定奋起反击。在黑甲(郭京飞 饰)的指引下,踏上了凡人弑神之路。这是小说家路空文(董子健 饰)笔下的奇幻世界。没想到小说的进程,竟然影响着现实世界。这时一名男子(雷佳音 饰)接下了刺杀他的任务…
资源下载
1080i/p下载地址 点击查看
4K下载地址 点击查看
《刺杀小说家》下载帮助和注意事项:
1、本站所有资源均为磁力链资源,无需注册登录即可查看下载地址
2、使用迅雷或网盘离线是无法下载资源的!必须使用BT下载工具,如果没有下载速度请添加我们提供的tracker服务器列表
3、推荐BT下载工具:比特彗星qbittorrentutorrent 内网使用路由请做好端口映射或开启UPnP
4、不管选择哪种P2P下载工具,都希望你能在条件允许的前提下不要限速多做种分享上传一段时间
5、刻意限制P2P下载工具的上传速度(此行为俗称:吸血)将影响你的下载速度 防止被吸血和防止运营商过滤的教程
6、人人为我我为人人,只有大家不限制上传速度,大家才能共同获得更快的下载速度,这才是P2P应有的良性循环!
7、所有资源来源网络,本站服务器不存储任何种子文件,如侵犯您的权益,请联系 [email protected] 删除资源
点评&资源版本介绍
 
刺杀小说家 大海战2 硬核RTS海战游戏-画面党手残党慎入.jpg
General
Unique ID                      : 97322062914243431812685018073121669079 (0x49378C2A60482DFAFBB483AB44B3BFD7)
Format                         : Matroska
Format version                 : Version 4
File size                      : 15.4 GiB
Duration                       : 2 h 9 min
Overall bit rate               : 16.9 Mb/s
Encoded date                   : UTC 2021-04-09 08:14:44
Writing application            : mkvmerge v54.0.0 ('F Maj Pixie') 64-bit
Writing library                : libebml v1.4.2 + libmatroska v1.6.3

Video
ID                             : 1
Format                         : HEVC
Format/Info                    : High Efficiency Video Coding
Format profile                 : [email protected]@High
Codec ID                       : V_MPEGH/ISO/HEVC
Duration                       : 2 h 9 min
Bit rate                       : 16.7 Mb/s
Width                          : 3 840 pixels
Height                         : 2 080 pixels
Display aspect ratio           : 1.85:1
Frame rate mode                : Constant
Frame rate                     : 24.000 FPS
Color space                    : YUV
Chroma subsampling             : 4:2:0
Bit depth                      : 8 bits
Bits/(Pixel*Frame)             : 0.087
Stream size                    : 15.1 GiB (98%)
Default                        : Yes
Forced                         : No

Audio
ID                             : 2
Format                         : E-AC-3
Format/Info                    : Enhanced AC-3
Commercial name                : Dolby Digital Plus
Codec ID                       : A_EAC3
Duration                       : 2 h 9 min
Bit rate mode                  : Constant
Bit rate                       : 256 kb/s
Channel(s)                     : 6 channels
Channel layout                 : L R C LFE Ls Rs
Sampling rate                  : 48.0 kHz
Frame rate                     : 31.250 FPS (1536 SPF)
Compression mode               : Lossy
Stream size                    : 238 MiB (2%)
Language                       : Chinese
Service kind                   : Complete Main
Default                        : Yes
Forced                         : No


分享快乐!
回复

使用道具 举报

 

精彩评论1

正序浏览
亦儒向东 发表于 2021-6-13 08:55 | 显示全部楼层
 
终于等到回归了
分享快乐!
回复

使用道具 举报

 
您需要登录后才可以回帖 登录 | 立即注册

本版积分规则

0关注

11粉丝

838帖子

广告位
经典RPG武侠手游,安卓首发。
  • 版块推荐
  • 百宝箱
推荐阅读更多+
会员达人更多+
广告位
经典RPG武侠手游,安卓首发。

信息推荐

更多+

最新信息

更多+

加入我们!分享快乐!

人人为我,我为人人!抵制吸血和收费分享行为!

从我做起!

只分享高品质影视资源

只求质量、不求数量、不抢首发!

Email:[email protected]

DHTCLUB - 高品质影视资源分享俱乐部