开启左侧

黑寡妇.Black.Widow.2021.2160p.WEB-DL.HEVC.HDR.Atmos.DDP5.1-DHTCLUB

[复制链接]
dhtclub 发表于 2021-7-21 21:55 | 显示全部楼层 |阅读模式 打印 上一主题 下一主题

黑寡妇Black.Widow(2021)4K 

简介一部充满动作戏的间谍惊悚片。娜塔莎·罗曼诺夫/黑寡妇遭遇与她的过去相关的一场危险阴谋,将直面自己那些更为黑暗的经历。一股不惜一切要击倒她的力量袭来,娜塔莎必须面对自己在成为复仇者的很久之前那作为间谍的过往,和曾远离的破碎关系。
导演凯特·绍特兰
编剧雅克·舍费尔 / 内德·本森 / 埃里克·皮尔森 / 斯坦·李 / 唐·赫克 / 唐·里科
类型动作 科幻 冒险 
地区美国 
语言英语 
时长134分钟
资源大小16.2G
字幕语言内嵌简中 内嵌繁中 内嵌英语 内嵌简中英双语 内嵌繁中英双语 
豆瓣评分6.4
豆瓣链接https://movie.douban.com/subject/25828589/
IMDB评分6.9
IMDB链接https://www.imdb.com/title/tt3480822/
演员表

黑寡妇 的主要演员表……

斯嘉丽·约翰逊 / 弗洛伦丝·皮尤 / 蕾切尔·薇兹 / 大卫·哈伯 / 艾尔·安德森 / 维奥莱特·麦格劳 / 欧嘉·柯瑞兰寇 / O·T·法格本 / 威廉·赫特 / 雷·温斯顿 / 赖恩·基拉·阿姆斯特朗 / 米歇尔·李 / 拉娜·布隆代尔 / Claudia Heinz / 露西·詹·穆雷 / 乔治亚·柯蒂斯 / 约恩·巴特勒 / 库尔特·岳 / 奥利维尔·里希特斯 / 安得烈·拜伦 / 卡利·内勒 / 罗伯特·普拉尔戈 / 贾辛特 / 乔希·亨利 / 阿里娅·布鲁克斯 / 泰·赫尔利 / 马里安·洛伦西克 / 茱莉亚·路易斯-德瑞弗斯 / 亚当·普里克特 / 史蒂芬·萨姆森 / 乔基姆·斯卡利 / 利亚尼·塞缪尔 / 西蒙娜·齐夫科夫斯卡 / 刘易斯·扬
影片介绍

黑寡妇 的剧情介绍……

一部充满动作戏的间谍惊悚片。娜塔莎·罗曼诺夫/黑寡妇遭遇与她的过去相关的一场危险阴谋,将直面自己那些更为黑暗的经历。一股不惜一切要击倒她的力量袭来,娜塔莎必须面对自己在成为复仇者的很久之前那作为间谍的过往,和曾远离的破碎关系。
资源下载
1080i/p下载地址 点击查看
4K下载地址 点击查看
《黑寡妇》下载帮助和注意事项:
1、本站所有资源均为磁力链资源,无需注册登录即可查看下载地址
2、使用迅雷或网盘离线是无法下载资源的!必须使用BT下载工具,如果没有下载速度请添加我们提供的tracker服务器列表
3、推荐BT下载工具:比特彗星qbittorrentutorrent 内网使用路由请做好端口映射或开启UPnP
4、不管选择哪种P2P下载工具,都希望你能在条件允许的前提下不要限速多做种分享上传一段时间
5、刻意限制P2P下载工具的上传速度(此行为俗称:吸血)将影响你的下载速度 防止被吸血和防止运营商过滤的教程
6、人人为我我为人人,只有大家不限制上传速度,大家才能共同获得更快的下载速度,这才是P2P应有的良性循环!
7、所有资源来源网络,本站服务器不存储任何种子文件,如侵犯您的权益,请联系 [email protected] 删除资源
点评&资源版本介绍
 
黑寡妇 大海战2 硬核RTS海战游戏-画面党手残党慎入.mkv.jpg
General
Unique ID                      : 39090481578858644753987435493682170955 (0x1D688D8AF0F1235EDD153F94A12DCC4B)
Format                         : Matroska
Format version                 : Version 4
File size                      : 16.1 GiB
Duration                       : 2 h 13 min
Overall bit rate               : 17.2 Mb/s
Movie name                     : Black Widow
Encoded date                   : UTC 2021-07-10 05:46:36
Writing application            : mkvmerge v51.0.0 ('I Wish') 64-bit
Writing library                : libebml v1.4.0 + libmatroska v1.6.2
Cover                          : Yes
Attachments                    : Cover.jpg

Video
ID                             : 1
Format                         : HEVC
Format/Info                    : High Efficiency Video Coding
Format profile                 : Main [email protected]@High
HDR format                     : SMPTE ST 2086, HDR10 compatible
Codec ID                       : V_MPEGH/ISO/HEVC
Duration                       : 2 h 13 min
Bit rate                       : 16.4 Mb/s
Width                          : 3 840 pixels
Height                         : 2 160 pixels
Display aspect ratio           : 16:9
Frame rate mode                : Constant
Frame rate                     : 23.976 (24000/1001) FPS
Color space                    : YUV
Chroma subsampling             : 4:2:0
Bit depth                      : 10 bits
Bits/(Pixel*Frame)             : 0.082
Stream size                    : 15.3 GiB (95%)
Default                        : Yes
Forced                         : No
Color range                    : Limited
Color primaries                : BT.2020
Transfer characteristics       : PQ
Matrix coefficients            : BT.2020 non-constant
Mastering display color primar : Display P3
Mastering display luminance    : min: 0.0050 cd/m2, max: 4000 cd/m2

Audio
ID                             : 2
Format                         : E-AC-3 JOC
Format/Info                    : Enhanced AC-3 with Joint Object Coding
Commercial name                : Dolby Digital Plus with Dolby Atmos
Codec ID                       : A_EAC3
Duration                       : 2 h 13 min
Bit rate mode                  : Constant
Bit rate                       : 768 kb/s
Channel(s)                     : 6 channels
Channel layout                 : L R C LFE Ls Rs
Sampling rate                  : 48.0 kHz
Frame rate                     : 31.250 FPS (1536 SPF)
Compression mode               : Lossy
Stream size                    : 735 MiB (4%)
Title                          : English
Language                       : English
Service kind                   : Complete Main
Default                        : No
Forced                         : No
Complexity index               : 16
Number of dynamic objects      : 15
Bed channel count              : 1 channel
Bed channel configuration      : LFE

Text #1
ID                             : 3
Format                         : UTF-8
Codec ID                       : S_TEXT/UTF8
Codec ID/Info                  : UTF-8 Plain Text
Duration                       : 2 h 12 min
Bit rate                       : 40 b/s
Count of elements              : 1301
Stream size                    : 39.4 KiB (0%)
Title                          : Spanish
Language                       : Spanish
Default                        : No
Forced                         : No

Text #2
ID                             : 4
Format                         : UTF-8
Codec ID                       : S_TEXT/UTF8
Codec ID/Info                  : UTF-8 Plain Text
Duration                       : 2 h 12 min
Bit rate                       : 43 b/s
Count of elements              : 1319
Stream size                    : 42.7 KiB (0%)
Title                          : French Canadian
Language                       : French
Default                        : No
Forced                         : No

Text #3
ID                             : 5
Format                         : UTF-8
Codec ID                       : S_TEXT/UTF8
Codec ID/Info                  : UTF-8 Plain Text
Duration                       : 2 h 12 min
Bit rate                       : 33 b/s
Count of elements              : 1256
Stream size                    : 32.4 KiB (0%)
Title                          : French
Language                       : French
Default                        : No
Forced                         : No

Text #4
ID                             : 6
Format                         : UTF-8
Codec ID                       : S_TEXT/UTF8
Codec ID/Info                  : UTF-8 Plain Text
Duration                       : 2 h 12 min
Bit rate                       : 36 b/s
Count of elements              : 1277
Stream size                    : 35.0 KiB (0%)
Title                          : European Spanish
Language                       : Spanish
Default                        : No
Forced                         : No

Text #5
ID                             : 7
Format                         : UTF-8
Codec ID                       : S_TEXT/UTF8
Codec ID/Info                  : UTF-8 Plain Text
Duration                       : 2 h 12 min
Bit rate                       : 39 b/s
Count of elements              : 1306
Stream size                    : 38.8 KiB (0%)
Title                          : English
Language                       : English
Default                        : No
Forced                         : No

Text #6
ID                             : 8
Format                         : UTF-8
Codec ID                       : S_TEXT/UTF8
Codec ID/Info                  : UTF-8 Plain Text
Duration                       : 2 h 13 min
Bit rate                       : 46 b/s
Count of elements              : 1630
Stream size                    : 45.7 KiB (0%)
Title                          : English [SDH]
Language                       : English
Default                        : No
Forced                         : No

Text #7
ID                             : 9
Format                         : ASS
Codec ID                       : S_TEXT/ASS
Codec ID/Info                  : Advanced Sub Station Alpha
Duration                       : 2 h 12 min
Bit rate                       : 77 b/s
Count of elements              : 1346
Compression mode               : Lossless
Stream size                    : 75.7 KiB (0%)
Language                       : Chinese
Default                        : Yes
Forced                         : No

Text #8
ID                             : 10
Format                         : ASS
Codec ID                       : S_TEXT/ASS
Codec ID/Info                  : Advanced Sub Station Alpha
Duration                       : 2 h 12 min
Bit rate                       : 77 b/s
Count of elements              : 1346
Compression mode               : Lossless
Stream size                    : 75.7 KiB (0%)
Language                       : Chinese
Default                        : No
Forced                         : No

Text #9
ID                             : 11
Format                         : ASS
Codec ID                       : S_TEXT/ASS
Codec ID/Info                  : Advanced Sub Station Alpha
Duration                       : 2 h 12 min
Bit rate                       : 220 b/s
Count of elements              : 1346
Compression mode               : Lossless
Stream size                    : 214 KiB (0%)
Language                       : Chinese
Default                        : No
Forced                         : No

Text #10
ID                             : 12
Format                         : ASS
Codec ID                       : S_TEXT/ASS
Codec ID/Info                  : Advanced Sub Station Alpha
Duration                       : 2 h 12 min
Bit rate                       : 220 b/s
Count of elements              : 1346
Compression mode               : Lossless
Stream size                    : 214 KiB (0%)
Language                       : Chinese
Default                        : No
Forced                         : No

Text #11
ID                             : 13
Format                         : PGS
Muxing mode                    : zlib
Codec ID                       : S_HDMV/PGS
Codec ID/Info                  : Picture based subtitle format used on BDs/HD-DVDs
Duration                       : 2 h 12 min
Bit rate                       : 25.5 kb/s
Count of elements              : 2672
Stream size                    : 24.2 MiB (0%)
Language                       : Chinese
Default                        : No
Forced                         : No

Text #12
ID                             : 14
Format                         : PGS
Muxing mode                    : zlib
Codec ID                       : S_HDMV/PGS
Codec ID/Info                  : Picture based subtitle format used on BDs/HD-DVDs
Duration                       : 2 h 12 min
Bit rate                       : 26.1 kb/s
Count of elements              : 2672
Stream size                    : 24.7 MiB (0%)
Language                       : Chinese
Default                        : No
Forced                         : No

Text #13
ID                             : 15
Format                         : PGS
Muxing mode                    : zlib
Codec ID                       : S_HDMV/PGS
Codec ID/Info                  : Picture based subtitle format used on BDs/HD-DVDs
Duration                       : 2 h 12 min
Bit rate                       : 40.5 kb/s
Count of elements              : 2672
Stream size                    : 38.3 MiB (0%)
Language                       : Chinese
Default                        : No
Forced                         : No

Text #14
ID                             : 16
Format                         : PGS
Muxing mode                    : zlib
Codec ID                       : S_HDMV/PGS
Codec ID/Info                  : Picture based subtitle format used on BDs/HD-DVDs
Duration                       : 2 h 12 min
Bit rate                       : 41.0 kb/s
Count of elements              : 2672
Stream size                    : 38.9 MiB (0%)
Language                       : Chinese
Default                        : No
Forced                         : No



分享快乐!
回复

使用道具 举报

 
您需要登录后才可以回帖 登录 | 立即注册

本版积分规则

0关注

11粉丝

838帖子

广告位
经典RPG武侠手游,安卓首发。
  • 版块推荐
  • 百宝箱
推荐阅读更多+
会员达人更多+
广告位
经典RPG武侠手游,安卓首发。

信息推荐

更多+

最新信息

更多+

加入我们!分享快乐!

人人为我,我为人人!抵制吸血和收费分享行为!

从我做起!

只分享高品质影视资源

只求质量、不求数量、不抢首发!

Email:[email protected]

DHTCLUB - 高品质影视资源分享俱乐部