开启左侧

老友记.全10季.Friends.1080p.NF.WEB-DL.DDP5.1.x264-DHTCLUB

[复制链接]
dhtclub 发表于 2021-8-19 19:49 | 显示全部楼层 |阅读模式 打印 上一主题 下一主题

老友记.全10季购买VIP查看下载地址(90年代)1080P 

简介莫妮卡(柯特妮·考克斯 )、钱德(马修·派瑞)、瑞秋(詹妮弗·安妮斯顿)、菲比(莉莎·库卓)、乔伊(马特·理勃兰)和罗斯(大卫·休谟)是彼此最好的朋友,一起走过十年岁月的点点滴滴。虽然老友们各有各的性格特点,也会有矛盾和争执,但对于彼此,他们永远be there for you.
  故事开始在Central Perk咖啡馆里,婚礼上落荒而逃的瑞秋闯进来寻找老同学莫妮卡。莫妮卡的哥哥刚刚离婚,而他从小暗恋的人正是这个落跑新娘瑞秋。瑞秋在莫妮卡家住了下来,决定不再做爸爸的女孩儿,真正的步入社会,于是在其他老友的帮助下,她上路了,从二十多岁初入社会,到三十多岁成家立业,他们一走就是十年。
  十年间风风雨雨,在嬉笑怒骂中,在离别团聚中,他们向我们讲述着友情、爱情还有生活。让我们和他们一起开怀大笑或是黯然神伤。
导演大卫·克拉尼 / 玛尔塔·考夫曼
编剧加里·哈勒沃尔森 / 凯文·布莱特
类型喜剧 爱情 
地区美国 
语言英语 
集数236集
资源大小287.9G
字幕语言内嵌简中 内嵌繁中 内嵌英语 
豆瓣评分9.9
豆瓣链接https://search.douban.com/movie/subject_search?search_text=%E8%80%81%E5%8F%8B%E8%AE%B0&cat=1002
IMDB评分8.9
IMDB链接https://www.imdb.com/find?q=Friends&ref_=nv_sr_sm#tt
演员表

老友记.全10季 的主要演员表……

詹妮弗·安妮斯顿 / 柯特妮·考克斯 / 丽莎·库卓 / 马特·勒布朗 / 马修·派瑞 / 大卫·休默 / 詹姆斯·迈克尔·泰勒
影片介绍

老友记.全10季 的剧情介绍……

莫妮卡(柯特妮·考克斯 )、钱德(马修·派瑞)、瑞秋(詹妮弗·安妮斯顿)、菲比(莉莎·库卓)、乔伊(马特·理勃兰)和罗斯(大卫·休谟)是彼此最好的朋友,一起走过十年岁月的点点滴滴。虽然老友们各有各的性格特点,也会有矛盾和争执,但对于彼此,他们永远be there for you.
  故事开始在Central Perk咖啡馆里,婚礼上落荒而逃的瑞秋闯进来寻找老同学莫妮卡。莫妮卡的哥哥刚刚离婚,而他从小暗恋的人正是这个落跑新娘瑞秋。瑞秋在莫妮卡家住了下来,决定不再做爸爸的女孩儿,真正的步入社会,于是在其他老友的帮助下,她上路了,从二十多岁初入社会,到三十多岁成家立业,他们一走就是十年。
  十年间风风雨雨,在嬉笑怒骂中,在离别团聚中,他们向我们讲述着友情、爱情还有生活。让我们和他们一起开怀大笑或是黯然神伤。
资源下载
1080i/p下载地址 点击查看
4K下载地址 点击查看
《老友记.全10季》下载帮助和注意事项:
1、本站所有资源均为磁力链资源,无需注册登录即可查看下载地址
2、使用迅雷或网盘离线是无法下载资源的!必须使用BT下载工具,如果没有下载速度请添加我们提供的tracker服务器列表
3、推荐BT下载工具:比特彗星qbittorrentutorrent 内网使用路由请做好端口映射或开启UPnP
4、不管选择哪种P2P下载工具,都希望你能在条件允许的前提下不要限速多做种分享上传一段时间
5、刻意限制P2P下载工具的上传速度(此行为俗称:吸血)将影响你的下载速度 防止被吸血和防止运营商过滤的教程
6、人人为我我为人人,只有大家不限制上传速度,大家才能共同获得更快的下载速度,这才是P2P应有的良性循环!
7、所有资源来源网络,本站服务器不存储任何种子文件,如侵犯您的权益,请联系 [email protected] 删除资源
点评&资源版本介绍
 
老友记.第一季.E01 大海战2 舰队使命 硬核RTS海战游戏-画面党手残党勿入.mkv.jpg
General
Unique ID                      : 160836075354228923011754315276924032810 (0x78FFE6BFF027FF845EB7820641E1172A)
Format                         : Matroska
Format version                 : Version 4
File size                      : 1.29 GiB
Duration                       : 22 min 44 s
Overall bit rate mode          : Variable
Overall bit rate               : 8 139 kb/s
Encoded date                   : UTC 2019-11-20 13:12:16
Writing application            : mkvmerge v32.0.0 ('Astral Progressions') 32-bit
Writing library                : libebml v1.3.7 + libmatroska v1.5.0

Video
ID                             : 1
Format                         : AVC
Format/Info                    : Advanced Video Codec
Format profile                 : [email protected]
Format settings                : CABAC / 3 Ref Frames
Format settings, CABAC         : Yes
Format settings, Reference fra : 3 frames
Codec ID                       : V_MPEG4/ISO/AVC
Duration                       : 22 min 44 s
Bit rate mode                  : Variable
Bit rate                       : 7 500 kb/s
Maximum bit rate               : 11.2 Mb/s
Width                          : 1 920 pixels
Height                         : 1 080 pixels
Display aspect ratio           : 16:9
Frame rate mode                : Constant
Frame rate                     : 23.976 (24000/1001) FPS
Color space                    : YUV
Chroma subsampling             : 4:2:0
Bit depth                      : 8 bits
Scan type                      : Progressive
Bits/(Pixel*Frame)             : 0.151
Stream size                    : 1.19 GiB (92%)
Writing library                : x264 core 118
Encoding settings              : cabac=1 / ref=3 / deblock=1:0:0 / analyse=0x1:0x111 / me=umh / subme=10 / psy=1 / psy_rd=1.00:0.00 / mixed_ref=1 / me_range=24 / chroma_me=1 / trellis=2 / 8x8dct=0 / cqm=0 / deadzone=21,11 / fast_pskip=1 / chroma_qp_offset=-2 / threads=8 / sliced_threads=0 / nr=0 / decimate=1 / interlaced=0 / bluray_compat=0 / constrained_intra=0 / bframes=2 / b_pyramid=0 / b_adapt=2 / b_bias=0 / direct=3 / weightb=1 / open_gop=0 / weightp=2 / keyint=48 / keyint_min=25 / scenecut=0 / intra_refresh=0 / rc_lookahead=0 / rc=2pass / mbtree=1 / bitrate=7500 / ratetol=1.0 / qcomp=0.50 / qpmin=6 / qpmax=51 / qpstep=4 / cplxblur=20.0 / qblur=0.5 / vbv_maxrate=11250 / vbv_bufsize=15000 / nal_hrd=vbr / ip_ratio=1.40 / aq=1:1.00
Default                        : Yes
Forced                         : No

Audio
ID                             : 2
Format                         : E-AC-3
Format/Info                    : Enhanced AC-3
Commercial name                : Dolby Digital Plus
Codec ID                       : A_EAC3
Duration                       : 22 min 44 s
Bit rate mode                  : Constant
Bit rate                       : 640 kb/s
Channel(s)                     : 6 channels
Channel layout                 : L R C LFE Ls Rs
Sampling rate                  : 48.0 kHz
Frame rate                     : 31.250 FPS (1536 SPF)
Compression mode               : Lossy
Stream size                    : 104 MiB (8%)
Title                          : English
Language                       : English
Service kind                   : Complete Main
Default                        : Yes
Forced                         : No

Text #1
ID                             : 3
Format                         : UTF-8
Codec ID                       : S_TEXT/UTF8
Codec ID/Info                  : UTF-8 Plain Text
Duration                       : 22 min 30 s
Bit rate                       : 75 b/s
Count of elements              : 747
Stream size                    : 12.5 KiB (0%)
Title                          : English [SDH]
Language                       : English
Default                        : No
Forced                         : No

Text #2
ID                             : 4
Format                         : UTF-8
Codec ID                       : S_TEXT/UTF8
Codec ID/Info                  : UTF-8 Plain Text
Duration                       : 21 min 49 s
Bit rate                       : 68 b/s
Count of elements              : 390
Stream size                    : 11.0 KiB (0%)
Title                          : Chinese (Simplified) [Full]
Language                       : Chinese
Default                        : No
Forced                         : No

Text #3
ID                             : 5
Format                         : UTF-8
Codec ID                       : S_TEXT/UTF8
Codec ID/Info                  : UTF-8 Plain Text
Duration                       : 21 min 57 s
Bit rate                       : 71 b/s
Count of elements              : 346
Stream size                    : 11.5 KiB (0%)
Title                          : Chinese (Traditional) [Full]
Language                       : Chinese
Default                        : No
Forced                         : No



分享快乐!
回复

使用道具 举报

 

精彩评论3

正序浏览
hitwhy 发表于 2021-8-20 18:13 | 显示全部楼层
 
这个下载有点慢,其他的后还好。需要等一段时间再来下么,谢谢!
分享快乐!
回复

使用道具 举报

 
hitwhy 发表于 2021-8-24 21:46 | 显示全部楼层
 
hitwhy 发表于 2021-8-20 18:13
这个下载有点慢,其他的后还好。需要等一段时间再来下么,谢谢!

下了四天终于下完了~
分享快乐!
回复

使用道具 举报

 
一蓑烟雨 发表于 2021-9-1 10:11 | 显示全部楼层
 
hitwhy 发表于 2021-8-24 21:46
下了四天终于下完了~

迅雷下载还可以,
分享快乐!
回复

使用道具 举报

 
您需要登录后才可以回帖 登录 | 立即注册

本版积分规则

0关注

14粉丝

856帖子

广告位
经典RPG武侠手游,安卓首发。
  • 版块推荐
  • 百宝箱
会员达人更多+
  • e2302

    主题:0 积分:11347
  • reese

    主题:0 积分:8396
  • powwow

    主题:0 积分:3294
广告位
经典RPG武侠手游,安卓首发。

信息推荐

更多+

最新信息

更多+

加入我们!分享快乐!

人人为我,我为人人!抵制吸血和收费分享行为!

从我做起!

只分享高品质影视资源

只求质量、不求数量、不抢首发!

Email:[email protected]

DHTCLUB - 高品质影视资源分享俱乐部