开启左侧

速度与激情9.Fast.and.Furious.9.The.Fast.Saga.2021.2160p.WEB-DL.H265-DHTCLUB

[复制链接]
dhtclub 发表于 2021-8-28 18:55 | 显示全部楼层 |阅读模式 打印 上一主题 下一主题

速度与激情9Fast and Furious 9(2021)4K 

简介“唐老大”多姆·托莱多(范·迪塞尔 饰)与莱蒂(米歇尔·罗德里格兹 饰)和他的儿子小布莱恩,过上了远离纷扰的平静生活。然而他们也知道,安宁之下总潜藏着危机。这一次,为了保护他所爱的人,唐老大不得不直面过去。他和伙伴们面临的是一场足以引起世界动荡的阴谋,以及一个前所未遇的一流杀手和高能车手。而这个名叫雅各布(约翰·塞纳 饰)的人,恰巧是多姆遗落在外的亲弟弟。
导演林诣彬
编剧丹·凯西 / 盖瑞·斯科特·汤普森
类型动作 罪案 
地区美国 泰国 加拿大 
语言普通话 英语 
时长142分钟
资源大小15G
字幕语言内嵌简中英双语 
豆瓣评分5.3
豆瓣链接https://movie.douban.com/subject/25728006/
IMDB评分5.2
IMDB链接https://www.imdb.com/title/tt5433138/
演员表

速度与激情9 的主要演员表……

范·迪塞尔 / 约翰·塞纳 / 米歇尔·罗德里格兹 / 乔丹娜·布鲁斯特 / 泰瑞斯·吉布森 / 卢达·克里斯 / 查理兹·塞隆 / 海伦·米伦 / 姜成镐 / 娜塔莉·伊曼纽尔 / 迈克尔·鲁克 / 卢卡斯·布莱克 / 杜俊纬 / 卡迪·B / 吉姆·帕拉克 / 芬恩·科尔 / 安珀·西耶娜 / 马丁·福特 / 艾拉·沃克 / 泽井杏奈 / 图厄·埃尔斯特德·拉斯姆森 / 米拉吉·格尔比克 / 吉米·斯达 / 莱克斯·艾尔 / 温尼·贝内特 / 马克·克雷尼克 / 杰森·斯坦森
影片介绍

速度与激情9 的剧情介绍……

“唐老大”多姆·托莱多(范·迪塞尔 饰)与莱蒂(米歇尔·罗德里格兹 饰)和他的儿子小布莱恩,过上了远离纷扰的平静生活。然而他们也知道,安宁之下总潜藏着危机。这一次,为了保护他所爱的人,唐老大不得不直面过去。他和伙伴们面临的是一场足以引起世界动荡的阴谋,以及一个前所未遇的一流杀手和高能车手。而这个名叫雅各布(约翰·塞纳 饰)的人,恰巧是多姆遗落在外的亲弟弟。
资源下载
1080i/p下载地址 点击查看
4K下载地址 点击查看
《速度与激情9》下载帮助和注意事项:
1、本站所有资源均为磁力链资源,无需注册登录即可查看下载地址
2、使用迅雷或网盘离线是无法下载资源的!必须使用BT下载工具,如果没有下载速度请添加我们提供的tracker服务器列表
3、推荐BT下载工具:比特彗星qbittorrentutorrent 内网使用路由请做好端口映射或开启UPnP
4、不管选择哪种P2P下载工具,都希望你能在条件允许的前提下不要限速多做种分享上传一段时间
5、刻意限制P2P下载工具的上传速度(此行为俗称:吸血)将影响你的下载速度 防止被吸血和防止运营商过滤的教程
6、人人为我我为人人,只有大家不限制上传速度,大家才能共同获得更快的下载速度,这才是P2P应有的良性循环!
7、所有资源来源网络,本站服务器不存储任何种子文件,如侵犯您的权益,请联系 [email protected] 删除资源
点评&资源版本介绍
 
速度与激情9 大海战2 舰队使命 硬核RTS海战游戏-画面党手残党勿入.mkv.jpg
General
Unique ID                      : 146050797137003465764164122833538642182 (0x6DE05C409A9C81E5AB2B322832A9F106)
Format                         : Matroska
Format version                 : Version 4
File size                      : 14.9 GiB
Duration                       : 2 h 22 min
Overall bit rate               : 15.0 Mb/s
Encoded date                   : UTC 2021-08-18 04:06:34
Writing application            : mkvmerge v55.0.0 ('Waiting For Space') 64-bit
Writing library                : libebml v1.4.2 + libmatroska v1.6.4

Video
ID                             : 1
Format                         : HEVC
Format/Info                    : High Efficiency Video Coding
Format profile                 : [email protected]@High
Codec ID                       : V_MPEGH/ISO/HEVC
Duration                       : 2 h 22 min
Bit rate                       : 14.1 Mb/s
Width                          : 4 096 pixels
Height                         : 1 706 pixels
Display aspect ratio           : 2.40:1
Frame rate mode                : Constant
Frame rate                     : 25.000 FPS
Color space                    : YUV
Chroma subsampling             : 4:2:0
Bit depth                      : 8 bits
Bits/(Pixel*Frame)             : 0.081
Stream size                    : 14.0 GiB (94%)
Default                        : Yes
Forced                         : No

Audio #1
ID                             : 2
Format                         : E-AC-3
Format/Info                    : Enhanced AC-3
Commercial name                : Dolby Digital Plus
Codec ID                       : A_EAC3
Duration                       : 2 h 22 min
Bit rate mode                  : Constant
Bit rate                       : 256 kb/s
Channel(s)                     : 6 channels
Channel layout                 : L R C LFE Ls Rs
Sampling rate                  : 48.0 kHz
Frame rate                     : 31.250 FPS (1536 SPF)
Compression mode               : Lossy
Delay relative to video        : 24 ms
Stream size                    : 260 MiB (2%)
Title                          : 英语DDP5.1
Language                       : English
Service kind                   : Complete Main
Default                        : Yes
Forced                         : No

Audio #2
ID                             : 3
Format                         : E-AC-3
Format/Info                    : Enhanced AC-3
Commercial name                : Dolby Digital Plus
Codec ID                       : A_EAC3
Duration                       : 2 h 22 min
Bit rate mode                  : Constant
Bit rate                       : 256 kb/s
Channel(s)                     : 6 channels
Channel layout                 : L R C LFE Ls Rs
Sampling rate                  : 48.0 kHz
Frame rate                     : 31.250 FPS (1536 SPF)
Compression mode               : Lossy
Delay relative to video        : 24 ms
Stream size                    : 260 MiB (2%)
Title                          : 国语DDP5.1
Language                       : Chinese
Service kind                   : Complete Main
Default                        : No
Forced                         : No

Audio #3
ID                             : 4
Format                         : AAC LC
Format/Info                    : Advanced Audio Codec Low Complexity
Codec ID                       : A_AAC-2
Duration                       : 2 h 22 min
Bit rate                       : 192 kb/s
Channel(s)                     : 2 channels
Channel layout                 : L R
Sampling rate                  : 48.0 kHz
Frame rate                     : 46.875 FPS (1024 SPF)
Compression mode               : Lossy
Delay relative to video        : 3 ms
Stream size                    : 193 MiB (1%)
Title                          : 英语AAC2.0
Language                       : English
Default                        : No
Forced                         : No

Audio #4
ID                             : 5
Format                         : AAC LC
Format/Info                    : Advanced Audio Codec Low Complexity
Codec ID                       : A_AAC-2
Duration                       : 2 h 22 min
Bit rate                       : 192 kb/s
Channel(s)                     : 2 channels
Channel layout                 : L R
Sampling rate                  : 48.0 kHz
Frame rate                     : 46.875 FPS (1024 SPF)
Compression mode               : Lossy
Delay relative to video        : 3 ms
Stream size                    : 193 MiB (1%)
Title                          : 国语AAC2.0
Language                       : Chinese
Default                        : No
Forced                         : No


分享快乐!
回复

使用道具 举报

 

精彩评论3

正序浏览
宝娜果 发表于 2021-8-29 23:45 | 显示全部楼层
 
谢谢分享,终于等到了
分享快乐!
回复

使用道具 举报

 
beyondsega 发表于 2021-9-4 23:17 | 显示全部楼层
 
为什么只能看37秒
分享快乐!
回复

使用道具 举报

 
dhtclub 发表于 2021-9-5 17:08 | 显示全部楼层
 
beyondsega 发表于 2021-9-4 23:17
为什么只能看37秒

你自己播放器有问题,我们测试过,播放没问题。
分享快乐!
回复

使用道具 举报

 
您需要登录后才可以回帖 登录 | 立即注册

本版积分规则

0关注

14粉丝

856帖子

广告位
经典RPG武侠手游,安卓首发。
  • 版块推荐
  • 百宝箱
会员达人更多+
  • e2302

    主题:0 积分:11347
  • reese

    主题:0 积分:8396
  • powwow

    主题:0 积分:3294
广告位
经典RPG武侠手游,安卓首发。

信息推荐

更多+

最新信息

更多+

加入我们!分享快乐!

人人为我,我为人人!抵制吸血和收费分享行为!

从我做起!

只分享高品质影视资源

只求质量、不求数量、不抢首发!

Email:[email protected]

DHTCLUB - 高品质影视资源分享俱乐部