开启左侧

燃烧吧!废柴!.Litter.to.Glitter.2021.2160p.WEB-DL.H265.AAC-DHTCLUB

[复制链接]
dhtclub 发表于 2021-8-28 19:47 | 显示全部楼层 |阅读模式 打印 上一主题 下一主题

燃烧吧!废柴!购买VIP查看下载地址(2021)4K 

简介本剧讲述了方天逸、胡彦祖和袁智杰三个怀揣电影梦的大学室友,在影视基地旁边开了一个客栈,一边筹措自己的影视基金,一边给剧组打工磨炼技艺,但无论是酒店经营还是他们的影视梦想都困难重重。同时,寄住在客栈里的方天姿、叶小夕和林安琪,同样也在为各自的梦想奋斗。天逸与带着宝宝的单亲妈妈小夕在相处中渐生情愫,而多年老友天姿和彦祖之间的友谊也升华成了爱情……几个人在各自的挫折中成长,彼此扶持,终于赢来一些转机。他们决定继续追梦,永不放弃。
导演陈畅
编剧穷小疯 / 姜索兰 / 康远昭 / 关嘉欣
类型喜剧 
地区中国内地 
语言普通话 
集数30集
资源大小41.3G
字幕语言内嵌简中 
豆瓣评分无分
豆瓣链接https://movie.douban.com/subject/35073518/
IMDB评分无分
IMDB链接
演员表

燃烧吧!废柴! 的主要演员表……

王彦霖 / 程小蒙 / 熊梓淇 / 厉嘉琪 / 张亦驰 / 龙政璇
影片介绍

燃烧吧!废柴! 的剧情介绍……

本剧讲述了方天逸、胡彦祖和袁智杰三个怀揣电影梦的大学室友,在影视基地旁边开了一个客栈,一边筹措自己的影视基金,一边给剧组打工磨炼技艺,但无论是酒店经营还是他们的影视梦想都困难重重。同时,寄住在客栈里的方天姿、叶小夕和林安琪,同样也在为各自的梦想奋斗。天逸与带着宝宝的单亲妈妈小夕在相处中渐生情愫,而多年老友天姿和彦祖之间的友谊也升华成了爱情……几个人在各自的挫折中成长,彼此扶持,终于赢来一些转机。他们决定继续追梦,永不放弃。
资源下载
1080i/p下载地址 点击查看
4K下载地址 点击查看
《燃烧吧!废柴!》下载帮助和注意事项:
1、本站所有资源均为磁力链资源,无需注册登录即可查看下载地址
2、使用迅雷或网盘离线是无法下载资源的!必须使用BT下载工具,如果没有下载速度请添加我们提供的tracker服务器列表
3、推荐BT下载工具:比特彗星qbittorrentutorrent 内网使用路由请做好端口映射或开启UPnP
4、不管选择哪种P2P下载工具,都希望你能在条件允许的前提下不要限速多做种分享上传一段时间
5、刻意限制P2P下载工具的上传速度(此行为俗称:吸血)将影响你的下载速度 防止被吸血和防止运营商过滤的教程
6、人人为我我为人人,只有大家不限制上传速度,大家才能共同获得更快的下载速度,这才是P2P应有的良性循环!
7、所有资源来源网络,本站服务器不存储任何种子文件,如侵犯您的权益,请联系 [email protected] 删除资源
点评&资源版本介绍
 
燃烧吧!废柴!.E01 大海战2 舰队使命 硬核RTS海战游戏-画面党手残党勿入.mp4.jpg
General
Format                         : MPEG-4
Format profile                 : Base Media
Codec ID                       : isom (isom/iso2/mp41)
File size                      : 1.41 GiB
Duration                       : 51 min 8 s
Overall bit rate mode          : Variable
Overall bit rate               : 3 936 kb/s
Writing application            : Lavf58.32.104

Video
ID                             : 1
Format                         : HEVC
Format/Info                    : High Efficiency Video Coding
Format profile                 : [email protected]@Main
Codec ID                       : hev1
Codec ID/Info                  : High Efficiency Video Coding
Duration                       : 51 min 8 s
Bit rate                       : 3 739 kb/s
Width                          : 3 840 pixels
Height                         : 2 160 pixels
Display aspect ratio           : 16:9
Frame rate mode                : Constant
Frame rate                     : 25.000 FPS
Color space                    : YUV
Chroma subsampling             : 4:2:0
Bit depth                      : 8 bits
Bits/(Pixel*Frame)             : 0.018
Stream size                    : 1.34 GiB (95%)
Color range                    : Limited
Color primaries                : BT.709
Transfer characteristics       : BT.709
Matrix coefficients            : BT.709
Codec configuration box        : hvcC

Audio
ID                             : 2
Format                         : AAC LC
Format/Info                    : Advanced Audio Codec Low Complexity
Codec ID                       : mp4a-40-2
Duration                       : 51 min 8 s
Bit rate mode                  : Variable
Bit rate                       : 192 kb/s
Channel(s)                     : 2 channels
Channel layout                 : L R
Sampling rate                  : 44.1 kHz
Frame rate                     : 43.066 FPS (1024 SPF)
Compression mode               : Lossy
Stream size                    : 69.4 MiB (5%)
Default                        : Yes
Alternate group                : 1

分享快乐!
回复

使用道具 举报

 
您需要登录后才可以回帖 登录 | 立即注册

本版积分规则

0关注

14粉丝

856帖子

广告位
经典RPG武侠手游,安卓首发。
  • 版块推荐
  • 百宝箱
会员达人更多+
  • e2302

    主题:0 积分:11347
  • reese

    主题:0 积分:8396
  • powwow

    主题:0 积分:3294
广告位
经典RPG武侠手游,安卓首发。

信息推荐

更多+

最新信息

更多+

加入我们!分享快乐!

人人为我,我为人人!抵制吸血和收费分享行为!

从我做起!

只分享高品质影视资源

只求质量、不求数量、不抢首发!

Email:[email protected]

DHTCLUB - 高品质影视资源分享俱乐部