开启左侧

全新樱桃味.Brand.New.Cherry.Flavor.S01.1080p.NF.WEB-DL.DDP5.1.Atmos.x264-DHTCLUB

[复制链接]
dhtclub 发表于 2021-8-31 09:49 | 显示全部楼层 |阅读模式 打印 上一主题 下一主题

全新樱桃味购买VIP查看下载地址(2021)1080P 

简介为了拍出属于自己的电影,丽莎·诺娃,一位在1990年洛杉矶阳光普照但阴暗的世界里有抱负的电影导演,误入一个满是性爱、魔法、复仇及小猫的奇异幻境。
导演Gandja Monteiro / 杰克·施莱尔 / 马特·索贝尔 / 尼克·安托斯卡 / 阿卡莎·史蒂文森
编剧尼克·安托斯卡 / Lenore Zion / Todd Grimson
类型剧情 恐怖 惊悚 悬疑 
地区美国 
语言英语 
集数8集
资源大小17.9G
字幕语言内嵌简中 内嵌繁中 内嵌英语 
豆瓣评分6.2
豆瓣链接https://movie.douban.com/subject/34925239/
IMDB评分7.3
IMDB链接https://www.imdb.com/title/tt11343600/
演员表

全新樱桃味 的主要演员表……

罗莎·萨拉查 / 丹尼尔·多尼 / 凯瑟琳·基纳 / 埃里克·兰格 / 汉娜·莱维恩 / 达西·劳瑞 / 伊娃·阿里尔·宾德 / 利兰·奥瑟 / 杰森·布莱尔 / 派特里克·费斯克勒 / 皮特·安蒂克 / 乔治亚·布拉德纳 / 莱雅·卡里恩斯 / 杰西卡·麦丽奥德 / 曼尼·贾希尼托 / 杰夫·沃德 / Mark Acheson / Crystal Albert / Siena Werber / Kenya Jordan / Aya Furukawa / Jason Gray
影片介绍

全新樱桃味 的剧情介绍……

为了拍出属于自己的电影,丽莎·诺娃,一位在1990年洛杉矶阳光普照但阴暗的世界里有抱负的电影导演,误入一个满是性爱、魔法、复仇及小猫的奇异幻境。
资源下载
1080i/p下载地址 点击查看
4K下载地址 点击查看
《全新樱桃味》下载帮助和注意事项:
1、本站所有资源均为磁力链资源,无需注册登录即可查看下载地址
2、使用迅雷或网盘离线是无法下载资源的!必须使用BT下载工具,如果没有下载速度请添加我们提供的tracker服务器列表
3、推荐BT下载工具:比特彗星qbittorrentutorrent 内网使用路由请做好端口映射或开启UPnP
4、不管选择哪种P2P下载工具,都希望你能在条件允许的前提下不要限速多做种分享上传一段时间
5、刻意限制P2P下载工具的上传速度(此行为俗称:吸血)将影响你的下载速度 防止被吸血和防止运营商过滤的教程
6、人人为我我为人人,只有大家不限制上传速度,大家才能共同获得更快的下载速度,这才是P2P应有的良性循环!
7、所有资源来源网络,本站服务器不存储任何种子文件,如侵犯您的权益,请联系 [email protected] 删除资源
点评&资源版本介绍
 
全新樱桃味.E01 大海战2 舰队使命 硬核RTS海战游戏-画面党手残党勿入.mkv.jpg
General
Unique ID                      : 83344496563796460832937079134603063355 (0x3EB390F01274DDDDA42A4A3CF0F2303B)
Format                         : Matroska
Format version                 : Version 4
File size                      : 2.93 GiB
Duration                       : 51 min 51 s
Overall bit rate mode          : Variable
Overall bit rate               : 8 084 kb/s
Writing application            : mkvmerge v60.0.0 ('Are We Copies?') 64-bit
Writing library                : libebml v1.4.2 + libmatroska v1.6.4

Video
ID                             : 1
Format                         : AVC
Format/Info                    : Advanced Video Codec
Format profile                 : [email protected]
Format settings                : CABAC / 4 Ref Frames
Format settings, CABAC         : Yes
Format settings, Reference fra : 4 frames
Codec ID                       : V_MPEG4/ISO/AVC
Duration                       : 51 min 51 s
Bit rate mode                  : Variable
Bit rate                       : 7 312 kb/s
Maximum bit rate               : 20.0 Mb/s
Width                          : 1 920 pixels
Height                         : 1 080 pixels
Display aspect ratio           : 16:9
Frame rate mode                : Constant
Frame rate                     : 23.976 (24000/1001) FPS
Color space                    : YUV
Chroma subsampling             : 4:2:0
Bit depth                      : 8 bits
Scan type                      : Progressive
Bits/(Pixel*Frame)             : 0.147
Stream size                    : 2.65 GiB (90%)
Writing library                : x264 core 148 r2722 1b0121b
Encoding settings              : cabac=1 / ref=4 / deblock=1:0:0 / analyse=0x3:0x111 / me=umh / subme=10 / psy=1 / psy_rd=1.00:0.00 / mixed_ref=1 / me_range=120 / chroma_me=1 / trellis=2 / 8x8dct=1 / cqm=0 / deadzone=21,11 / fast_pskip=1 / chroma_qp_offset=-2 / threads=8 / lookahead_threads=2 / sliced_threads=0 / nr=0 / decimate=1 / interlaced=0 / bluray_compat=0 / stitchable=1 / constrained_intra=0 / bframes=16 / b_pyramid=2 / b_adapt=2 / b_bias=0 / direct=3 / weightb=1 / open_gop=0 / weightp=2 / keyint=240 / keyint_min=121 / scenecut=0 / intra_refresh=0 / rc_lookahead=240 / rc=crf / mbtree=1 / crf=19.0 / qcomp=0.50 / qpmin=6 / qpmax=51 / qpstep=4 / vbv_maxrate=20000 / vbv_bufsize=25000 / crf_max=0.0 / nal_hrd=vbr / filler=0 / ip_ratio=1.40 / aq=1:0.80
Language                       : English
Default                        : Yes
Forced                         : No

Audio
ID                             : 2
Format                         : E-AC-3 JOC
Format/Info                    : Enhanced AC-3 with Joint Object Coding
Commercial name                : Dolby Digital Plus with Dolby Atmos
Codec ID                       : A_EAC3
Duration                       : 51 min 51 s
Bit rate mode                  : Constant
Bit rate                       : 768 kb/s
Channel(s)                     : 6 channels
Channel layout                 : L R C LFE Ls Rs
Sampling rate                  : 48.0 kHz
Frame rate                     : 31.250 FPS (1536 SPF)
Compression mode               : Lossy
Stream size                    : 285 MiB (10%)
Language                       : English
Service kind                   : Complete Main
Default                        : Yes
Forced                         : No
Complexity index               : 16
Number of dynamic objects      : 15
Bed channel count              : 1 channel
Bed channel configuration      : LFE

Text #1
ID                             : 3
Format                         : UTF-8
Codec ID                       : S_TEXT/UTF8
Codec ID/Info                  : UTF-8 Plain Text
Duration                       : 50 min 8 s
Bit rate                       : 50 b/s
Count of elements              : 604
Stream size                    : 18.4 KiB (0%)
Title                          : SDH
Language                       : English
Default                        : No
Forced                         : No

Text #2
ID                             : 4
Format                         : UTF-8
Codec ID                       : S_TEXT/UTF8
Codec ID/Info                  : UTF-8 Plain Text
Duration                       : 50 min 16 s
Bit rate                       : 75 b/s
Count of elements              : 510
Stream size                    : 27.7 KiB (0%)
Language                       : Arabic
Default                        : No
Forced                         : No

Text #3
ID                             : 5
Format                         : UTF-8
Codec ID                       : S_TEXT/UTF8
Codec ID/Info                  : UTF-8 Plain Text
Duration                       : 50 min 16 s
Bit rate                       : 42 b/s
Count of elements              : 509
Stream size                    : 15.5 KiB (0%)
Language                       : Czech
Default                        : No
Forced                         : No

Text #4
ID                             : 6
Format                         : UTF-8
Codec ID                       : S_TEXT/UTF8
Codec ID/Info                  : UTF-8 Plain Text
Duration                       : 50 min 16 s
Bit rate                       : 39 b/s
Count of elements              : 508
Stream size                    : 14.4 KiB (0%)
Language                       : Danish
Default                        : No
Forced                         : No

Text #5
ID                             : 7
Format                         : UTF-8
Codec ID                       : S_TEXT/UTF8
Codec ID/Info                  : UTF-8 Plain Text
Duration                       : 50 min 16 s
Bit rate                       : 42 b/s
Count of elements              : 501
Stream size                    : 15.8 KiB (0%)
Language                       : German
Default                        : No
Forced                         : No

Text #6
ID                             : 8
Format                         : UTF-8
Codec ID                       : S_TEXT/UTF8
Codec ID/Info                  : UTF-8 Plain Text
Duration                       : 50 min 16 s
Bit rate                       : 71 b/s
Count of elements              : 510
Stream size                    : 26.5 KiB (0%)
Language                       : Greek
Default                        : No
Forced                         : No

Text #7
ID                             : 9
Format                         : UTF-8
Codec ID                       : S_TEXT/UTF8
Codec ID/Info                  : UTF-8 Plain Text
Duration                       : 50 min 16 s
Bit rate                       : 42 b/s
Count of elements              : 508
Stream size                    : 15.6 KiB (0%)
Language                       : Spanish
Default                        : No
Forced                         : No

Text #8
ID                             : 10
Format                         : UTF-8
Codec ID                       : S_TEXT/UTF8
Codec ID/Info                  : UTF-8 Plain Text
Duration                       : 50 min 16 s
Bit rate                       : 42 b/s
Count of elements              : 509
Stream size                    : 15.6 KiB (0%)
Title                          : European
Language                       : Spanish
Default                        : No
Forced                         : No

Text #9
ID                             : 11
Format                         : UTF-8
Codec ID                       : S_TEXT/UTF8
Codec ID/Info                  : UTF-8 Plain Text
Duration                       : 50 min 16 s
Bit rate                       : 40 b/s
Count of elements              : 491
Stream size                    : 15.0 KiB (0%)
Language                       : Finnish
Default                        : No
Forced                         : No

Text #10
ID                             : 12
Format                         : UTF-8
Codec ID                       : S_TEXT/UTF8
Codec ID/Info                  : UTF-8 Plain Text
Duration                       : 50 min 16 s
Bit rate                       : 42 b/s
Count of elements              : 498
Stream size                    : 15.8 KiB (0%)
Language                       : French
Default                        : No
Forced                         : No

Text #11
ID                             : 13
Format                         : UTF-8
Codec ID                       : S_TEXT/UTF8
Codec ID/Info                  : UTF-8 Plain Text
Duration                       : 50 min 16 s
Bit rate                       : 72 b/s
Count of elements              : 517
Stream size                    : 26.6 KiB (0%)
Language                       : Hebrew
Default                        : No
Forced                         : No

Text #12
ID                             : 14
Format                         : UTF-8
Codec ID                       : S_TEXT/UTF8
Codec ID/Info                  : UTF-8 Plain Text
Duration                       : 50 min 16 s
Bit rate                       : 37 b/s
Count of elements              : 507
Stream size                    : 13.8 KiB (0%)
Language                       : Croatian
Default                        : No
Forced                         : No

Text #13
ID                             : 15
Format                         : UTF-8
Codec ID                       : S_TEXT/UTF8
Codec ID/Info                  : UTF-8 Plain Text
Duration                       : 50 min 16 s
Bit rate                       : 37 b/s
Count of elements              : 509
Stream size                    : 13.8 KiB (0%)
Language                       : Hungarian
Default                        : No
Forced                         : No

Text #14
ID                             : 16
Format                         : UTF-8
Codec ID                       : S_TEXT/UTF8
Codec ID/Info                  : UTF-8 Plain Text
Duration                       : 50 min 16 s
Bit rate                       : 41 b/s
Count of elements              : 507
Stream size                    : 15.1 KiB (0%)
Language                       : Indonesian
Default                        : No
Forced                         : No

Text #15
ID                             : 17
Format                         : UTF-8
Codec ID                       : S_TEXT/UTF8
Codec ID/Info                  : UTF-8 Plain Text
Duration                       : 50 min 16 s
Bit rate                       : 41 b/s
Count of elements              : 501
Stream size                    : 15.2 KiB (0%)
Language                       : Italian
Default                        : No
Forced                         : No

Text #16
ID                             : 18
Format                         : UTF-8
Codec ID                       : S_TEXT/UTF8
Codec ID/Info                  : UTF-8 Plain Text
Duration                       : 50 min 10 s
Bit rate                       : 43 b/s
Count of elements              : 509
Stream size                    : 16.0 KiB (0%)
Language                       : Japanese
Default                        : No
Forced                         : No

Text #17
ID                             : 19
Format                         : UTF-8
Codec ID                       : S_TEXT/UTF8
Codec ID/Info                  : UTF-8 Plain Text
Duration                       : 50 min 16 s
Bit rate                       : 50 b/s
Count of elements              : 510
Stream size                    : 18.5 KiB (0%)
Language                       : Korean
Default                        : No
Forced                         : No

Text #18
ID                             : 20
Format                         : UTF-8
Codec ID                       : S_TEXT/UTF8
Codec ID/Info                  : UTF-8 Plain Text
Duration                       : 50 min 16 s
Bit rate                       : 44 b/s
Count of elements              : 494
Stream size                    : 16.4 KiB (0%)
Language                       : Malay
Default                        : No
Forced                         : No

Text #19
ID                             : 21
Format                         : UTF-8
Codec ID                       : S_TEXT/UTF8
Codec ID/Info                  : UTF-8 Plain Text
Duration                       : 50 min 16 s
Bit rate                       : 41 b/s
Count of elements              : 503
Stream size                    : 15.3 KiB (0%)
Language                       : Norwegian Bokmal
Default                        : No
Forced                         : No

Text #20
ID                             : 22
Format                         : UTF-8
Codec ID                       : S_TEXT/UTF8
Codec ID/Info                  : UTF-8 Plain Text
Duration                       : 50 min 16 s
Bit rate                       : 38 b/s
Count of elements              : 483
Stream size                    : 14.2 KiB (0%)
Language                       : Dutch
Default                        : No
Forced                         : No

Text #21
ID                             : 23
Format                         : UTF-8
Codec ID                       : S_TEXT/UTF8
Codec ID/Info                  : UTF-8 Plain Text
Duration                       : 50 min 16 s
Bit rate                       : 39 b/s
Count of elements              : 508
Stream size                    : 14.7 KiB (0%)
Language                       : Polish
Default                        : No
Forced                         : No

Text #22
ID                             : 24
Format                         : UTF-8
Codec ID                       : S_TEXT/UTF8
Codec ID/Info                  : UTF-8 Plain Text
Duration                       : 50 min 16 s
Bit rate                       : 43 b/s
Count of elements              : 498
Stream size                    : 16.1 KiB (0%)
Language                       : Portuguese
Default                        : No
Forced                         : No

Text #23
ID                             : 25
Format                         : UTF-8
Codec ID                       : S_TEXT/UTF8
Codec ID/Info                  : UTF-8 Plain Text
Duration                       : 50 min 16 s
Bit rate                       : 42 b/s
Count of elements              : 509
Stream size                    : 15.5 KiB (0%)
Title                          : Brazilian
Language                       : Portuguese
Default                        : No
Forced                         : No

Text #24
ID                             : 26
Format                         : UTF-8
Codec ID                       : S_TEXT/UTF8
Codec ID/Info                  : UTF-8 Plain Text
Duration                       : 50 min 16 s
Bit rate                       : 50 b/s
Count of elements              : 509
Stream size                    : 18.5 KiB (0%)
Language                       : Romanian
Default                        : No
Forced                         : No

Text #25
ID                             : 27
Format                         : UTF-8
Codec ID                       : S_TEXT/UTF8
Codec ID/Info                  : UTF-8 Plain Text
Duration                       : 50 min 16 s
Bit rate                       : 68 b/s
Count of elements              : 509
Stream size                    : 25.1 KiB (0%)
Language                       : Russian
Default                        : No
Forced                         : No

Text #26
ID                             : 28
Format                         : UTF-8
Codec ID                       : S_TEXT/UTF8
Codec ID/Info                  : UTF-8 Plain Text
Duration                       : 50 min 16 s
Bit rate                       : 41 b/s
Count of elements              : 498
Stream size                    : 15.3 KiB (0%)
Language                       : Swedish
Default                        : No
Forced                         : No

Text #27
ID                             : 29
Format                         : UTF-8
Codec ID                       : S_TEXT/UTF8
Codec ID/Info                  : UTF-8 Plain Text
Duration                       : 50 min 16 s
Bit rate                       : 111 b/s
Count of elements              : 511
Stream size                    : 41.0 KiB (0%)
Language                       : Thai
Default                        : No
Forced                         : No

Text #28
ID                             : 30
Format                         : UTF-8
Codec ID                       : S_TEXT/UTF8
Codec ID/Info                  : UTF-8 Plain Text
Duration                       : 50 min 16 s
Bit rate                       : 40 b/s
Count of elements              : 509
Stream size                    : 14.8 KiB (0%)
Language                       : Turkish
Default                        : No
Forced                         : No

Text #29
ID                             : 31
Format                         : UTF-8
Codec ID                       : S_TEXT/UTF8
Codec ID/Info                  : UTF-8 Plain Text
Duration                       : 50 min 16 s
Bit rate                       : 67 b/s
Count of elements              : 510
Stream size                    : 24.7 KiB (0%)
Language                       : Ukrainian
Default                        : No
Forced                         : No

Text #30
ID                             : 32
Format                         : UTF-8
Codec ID                       : S_TEXT/UTF8
Codec ID/Info                  : UTF-8 Plain Text
Duration                       : 50 min 16 s
Bit rate                       : 61 b/s
Count of elements              : 508
Stream size                    : 22.8 KiB (0%)
Language                       : Vietnamese
Default                        : No
Forced                         : No

Text #31
ID                             : 33
Format                         : UTF-8
Codec ID                       : S_TEXT/UTF8
Codec ID/Info                  : UTF-8 Plain Text
Duration                       : 50 min 16 s
Bit rate                       : 42 b/s
Count of elements              : 504
Stream size                    : 15.8 KiB (0%)
Title                          : Simplified
Language                       : Chinese
Default                        : No
Forced                         : No

Text #32
ID                             : 34
Format                         : UTF-8
Codec ID                       : S_TEXT/UTF8
Codec ID/Info                  : UTF-8 Plain Text
Duration                       : 50 min 16 s
Bit rate                       : 44 b/s
Count of elements              : 512
Stream size                    : 16.3 KiB (0%)
Title                          : Traditional
Language                       : Chinese
Default                        : No
Forced                         : No


分享快乐!
回复

使用道具 举报

 
您需要登录后才可以回帖 登录 | 立即注册

本版积分规则

0关注

14粉丝

856帖子

广告位
经典RPG武侠手游,安卓首发。
  • 版块推荐
  • 百宝箱
会员达人更多+
  • e2302

    主题:0 积分:11347
  • reese

    主题:0 积分:8396
  • powwow

    主题:0 积分:3294
广告位
经典RPG武侠手游,安卓首发。

信息推荐

更多+

最新信息

更多+

加入我们!分享快乐!

人人为我,我为人人!抵制吸血和收费分享行为!

从我做起!

只分享高品质影视资源

只求质量、不求数量、不抢首发!

Email:[email protected]

DHTCLUB - 高品质影视资源分享俱乐部