开启左侧

无罪之最.El.inocente.2021.S01.1080p.WEBRip.DDP5.1.x264-DHTCLUB

[复制链接]
dhtclub 发表于 2021-8-31 10:26 | 显示全部楼层 |阅读模式 打印 上一主题 下一主题

无罪之最购买VIP查看下载地址(2021)1080P 

简介一天晚上,马特试图制止一场打斗,却因此变成了杀人犯。如今,有犯罪前科的他重建了自己的生活,但是一个来电打破了这一切。
导演奥里奥尔·保罗
编剧奥里奥尔·保罗 / 哈兰·科本 / Guillem Clua
类型剧情 惊悚 悬疑 罪案 
地区西班牙 
语言英语 西班牙语 
集数8集
资源大小14.9G
字幕语言内嵌简中 内嵌繁中 内嵌英语 
豆瓣评分8.5
豆瓣链接https://movie.douban.com/subject/34926405/
IMDB评分7.9
IMDB链接https://www.imdb.com/title/tt10147644/
演员表

无罪之最 的主要演员表……

马里奥·卡萨斯 / 奥拉·加里多 / 亚历山德拉·希门内斯 / 何塞·科罗纳多 / 胡安娜·阿科斯塔 / 马蒂娜·古斯曼 / 阿娜·瓦格纳 / 苏西·桑切斯 / 安娜·阿拉康 / 哈维·萨兹 / 冈扎洛·德·卡斯特 / 米玛·里埃拉 / 桑蒂·庞斯 / 山姆·费尔 / 米奇·艾斯巴尔贝 / 乔斯因·本格特伊 / 奥里奥尔·比拉 / 阿伊沙·达拉维 / 哈维尔·贝尔特兰 / 乔迪·科尔 / 亚历杭德罗·阿尔巴罗辛 / 艾妮安娜·卡布罗尔 / 大卫·韦尔
影片介绍

无罪之最 的剧情介绍……

一天晚上,马特试图制止一场打斗,却因此变成了杀人犯。如今,有犯罪前科的他重建了自己的生活,但是一个来电打破了这一切。
资源下载
1080i/p下载地址 点击查看
4K下载地址 点击查看
《无罪之最》下载帮助和注意事项:
1、本站所有资源均为磁力链资源,无需注册登录即可查看下载地址
2、使用迅雷或网盘离线是无法下载资源的!必须使用BT下载工具,如果没有下载速度请添加我们提供的tracker服务器列表
3、推荐BT下载工具:比特彗星qbittorrentutorrent 内网使用路由请做好端口映射或开启UPnP
4、不管选择哪种P2P下载工具,都希望你能在条件允许的前提下不要限速多做种分享上传一段时间
5、刻意限制P2P下载工具的上传速度(此行为俗称:吸血)将影响你的下载速度 防止被吸血和防止运营商过滤的教程
6、人人为我我为人人,只有大家不限制上传速度,大家才能共同获得更快的下载速度,这才是P2P应有的良性循环!
7、所有资源来源网络,本站服务器不存储任何种子文件,如侵犯您的权益,请联系 [email protected] 删除资源
点评&资源版本介绍
 
无罪之最.E01 大海战2 舰队使命 硬核RTS海战游戏-画面党手残党勿入.mkv.jpg
General
Unique ID                      : 52755373482054169939866052289360923316 (0x27B050BAE29D5222AF91D368F1B18AB4)
Format                         : Matroska
Format version                 : Version 4
File size                      : 1.60 GiB
Duration                       : 51 min 4 s
Overall bit rate mode          : Variable
Overall bit rate               : 4 498 kb/s
Encoded date                   : UTC 2021-04-30 08:13:19
Writing application            : mkvmerge v56.1.0 ('My Friend') 64-bit
Writing library                : libebml v1.4.2 + libmatroska v1.6.4
Cover                          : Yes
Attachments                    : small_cover.jpg / small_cover_land.jpg / cover.jpg / cover_land.jpg

Video
ID                             : 1
Format                         : AVC
Format/Info                    : Advanced Video Codec
Format profile                 : [email protected]
Format settings                : CABAC / 4 Ref Frames
Format settings, CABAC         : Yes
Format settings, Reference fra : 4 frames
Codec ID                       : V_MPEG4/ISO/AVC
Duration                       : 51 min 2 s
Bit rate mode                  : Variable
Bit rate                       : 3 214 kb/s
Maximum bit rate               : 20.0 Mb/s
Width                          : 1 920 pixels
Height                         : 1 080 pixels
Display aspect ratio           : 16:9
Frame rate mode                : Constant
Frame rate                     : 25.000 FPS
Color space                    : YUV
Chroma subsampling             : 4:2:0
Bit depth                      : 8 bits
Scan type                      : Progressive
Bits/(Pixel*Frame)             : 0.062
Stream size                    : 1.15 GiB (71%)
Writing library                : x264 core 148 r2722 1b0121b
Encoding settings              : cabac=1 / ref=4 / deblock=1:0:0 / analyse=0x3:0x111 / me=umh / subme=10 / psy=1 / psy_rd=1.00:0.00 / mixed_ref=1 / me_range=120 / chroma_me=1 / trellis=2 / 8x8dct=1 / cqm=0 / deadzone=21,11 / fast_pskip=1 / chroma_qp_offset=-2 / threads=6 / lookahead_threads=1 / sliced_threads=0 / nr=0 / decimate=1 / interlaced=0 / bluray_compat=0 / stitchable=1 / constrained_intra=0 / bframes=16 / b_pyramid=2 / b_adapt=2 / b_bias=0 / direct=3 / weightb=1 / open_gop=0 / weightp=2 / keyint=250 / keyint_min=126 / scenecut=0 / intra_refresh=0 / rc_lookahead=250 / rc=crf / mbtree=1 / crf=16.0 / qcomp=0.50 / qpmin=6 / qpmax=51 / qpstep=4 / vbv_maxrate=20000 / vbv_bufsize=25000 / crf_max=0.0 / nal_hrd=vbr / filler=0 / ip_ratio=1.40 / aq=1:0.80
Default                        : Yes
Forced                         : No

Audio #1
ID                             : 2
Format                         : E-AC-3
Format/Info                    : Enhanced AC-3
Commercial name                : Dolby Digital Plus
Codec ID                       : A_EAC3
Duration                       : 51 min 4 s
Bit rate mode                  : Constant
Bit rate                       : 640 kb/s
Channel(s)                     : 6 channels
Channel layout                 : L R C LFE Ls Rs
Sampling rate                  : 48.0 kHz
Frame rate                     : 31.250 FPS (1536 SPF)
Compression mode               : Lossy
Stream size                    : 234 MiB (14%)
Language                       : Spanish
Service kind                   : Complete Main
Default                        : Yes
Forced                         : No

Audio #2
ID                             : 3
Format                         : E-AC-3
Format/Info                    : Enhanced AC-3
Commercial name                : Dolby Digital Plus
Codec ID                       : A_EAC3
Duration                       : 51 min 4 s
Bit rate mode                  : Constant
Bit rate                       : 640 kb/s
Channel(s)                     : 6 channels
Channel layout                 : L R C LFE Ls Rs
Sampling rate                  : 48.0 kHz
Frame rate                     : 31.250 FPS (1536 SPF)
Compression mode               : Lossy
Stream size                    : 234 MiB (14%)
Language                       : English
Service kind                   : Complete Main
Default                        : No
Forced                         : No

Text #1
ID                             : 4
Format                         : UTF-8
Codec ID                       : S_TEXT/UTF8
Codec ID/Info                  : UTF-8 Plain Text
Duration                       : 45 min 43 s
Bit rate                       : 59 b/s
Count of elements              : 631
Stream size                    : 20.0 KiB (0%)
Title                          : English (SDH)
Language                       : English
Default                        : Yes
Forced                         : No

Text #2
ID                             : 5
Format                         : UTF-8
Codec ID                       : S_TEXT/UTF8
Codec ID/Info                  : UTF-8 Plain Text
Duration                       : 50 min 9 s
Bit rate                       : 42 b/s
Count of elements              : 489
Stream size                    : 15.7 KiB (0%)
Title                          : English
Language                       : English
Default                        : No
Forced                         : No

Text #3
ID                             : 6
Format                         : UTF-8
Codec ID                       : S_TEXT/UTF8
Codec ID/Info                  : UTF-8 Plain Text
Duration                       : 44 min 11 s
Bit rate                       : 0 b/s
Count of elements              : 14
Stream size                    : 293 Bytes (0%)
Title                          : English (Forced)
Language                       : English
Default                        : No
Forced                         : Yes

Text #4
ID                             : 7
Format                         : UTF-8
Codec ID                       : S_TEXT/UTF8
Codec ID/Info                  : UTF-8 Plain Text
Duration                       : 50 min 9 s
Bit rate                       : 73 b/s
Count of elements              : 499
Stream size                    : 26.9 KiB (0%)
Title                          : العربية
Language                       : Arabic
Default                        : No
Forced                         : No

Text #5
ID                             : 8
Format                         : UTF-8
Codec ID                       : S_TEXT/UTF8
Codec ID/Info                  : UTF-8 Plain Text
Duration                       : 50 min 9 s
Bit rate                       : 40 b/s
Count of elements              : 496
Stream size                    : 14.9 KiB (0%)
Title                          : Čeština
Language                       : Czech
Default                        : No
Forced                         : No

Text #6
ID                             : 9
Format                         : UTF-8
Codec ID                       : S_TEXT/UTF8
Codec ID/Info                  : UTF-8 Plain Text
Duration                       : 50 min 8 s
Bit rate                       : 39 b/s
Count of elements              : 462
Stream size                    : 14.6 KiB (0%)
Title                          : Dansk
Language                       : Danish
Default                        : No
Forced                         : No

Text #7
ID                             : 10
Format                         : UTF-8
Codec ID                       : S_TEXT/UTF8
Codec ID/Info                  : UTF-8 Plain Text
Duration                       : 50 min 8 s
Bit rate                       : 41 b/s
Count of elements              : 480
Stream size                    : 15.2 KiB (0%)
Title                          : Deutsch
Language                       : German
Default                        : No
Forced                         : No

Text #8
ID                             : 11
Format                         : UTF-8
Codec ID                       : S_TEXT/UTF8
Codec ID/Info                  : UTF-8 Plain Text
Duration                       : 45 min 0 s
Bit rate                       : 76 b/s
Count of elements              : 490
Stream size                    : 25.3 KiB (0%)
Title                          : Ελληνικά
Language                       : Greek
Default                        : No
Forced                         : No

Text #9
ID                             : 12
Format                         : UTF-8
Codec ID                       : S_TEXT/UTF8
Codec ID/Info                  : UTF-8 Plain Text
Duration                       : 45 min 47 s
Bit rate                       : 56 b/s
Count of elements              : 635
Stream size                    : 18.8 KiB (0%)
Title                          : Español (SDH)
Language                       : Spanish
Default                        : No
Forced                         : No

Text #10
ID                             : 13
Format                         : UTF-8
Codec ID                       : S_TEXT/UTF8
Codec ID/Info                  : UTF-8 Plain Text
Duration                       : 50 min 9 s
Bit rate                       : 42 b/s
Count of elements              : 488
Stream size                    : 15.5 KiB (0%)
Title                          : Suomi
Language                       : Finnish
Default                        : No
Forced                         : No

Text #11
ID                             : 14
Format                         : UTF-8
Codec ID                       : S_TEXT/UTF8
Codec ID/Info                  : UTF-8 Plain Text
Duration                       : 50 min 9 s
Bit rate                       : 44 b/s
Count of elements              : 497
Stream size                    : 16.2 KiB (0%)
Title                          : Français
Language                       : French
Default                        : No
Forced                         : No

Text #12
ID                             : 15
Format                         : UTF-8
Codec ID                       : S_TEXT/UTF8
Codec ID/Info                  : UTF-8 Plain Text
Duration                       : 50 min 10 s
Bit rate                       : 68 b/s
Count of elements              : 507
Stream size                    : 25.3 KiB (0%)
Title                          : עברית
Language                       : Hebrew
Default                        : No
Forced                         : No

Text #13
ID                             : 16
Format                         : UTF-8
Codec ID                       : S_TEXT/UTF8
Codec ID/Info                  : UTF-8 Plain Text
Duration                       : 50 min 7 s
Bit rate                       : 37 b/s
Count of elements              : 485
Stream size                    : 13.6 KiB (0%)
Title                          : Hrvatski
Language                       : Croatian
Default                        : No
Forced                         : No

Text #14
ID                             : 17
Format                         : UTF-8
Codec ID                       : S_TEXT/UTF8
Codec ID/Info                  : UTF-8 Plain Text
Duration                       : 50 min 8 s
Bit rate                       : 40 b/s
Count of elements              : 484
Stream size                    : 15.0 KiB (0%)
Title                          : Magyar
Language                       : Hungarian
Default                        : No
Forced                         : No

Text #15
ID                             : 18
Format                         : UTF-8
Codec ID                       : S_TEXT/UTF8
Codec ID/Info                  : UTF-8 Plain Text
Duration                       : 50 min 9 s
Bit rate                       : 42 b/s
Count of elements              : 477
Stream size                    : 15.5 KiB (0%)
Title                          : Bahasa Indonesia
Language                       : Indonesian
Default                        : No
Forced                         : No

Text #16
ID                             : 19
Format                         : UTF-8
Codec ID                       : S_TEXT/UTF8
Codec ID/Info                  : UTF-8 Plain Text
Duration                       : 50 min 7 s
Bit rate                       : 42 b/s
Count of elements              : 485
Stream size                    : 15.5 KiB (0%)
Title                          : Italiano
Language                       : Italian
Default                        : No
Forced                         : No

Text #17
ID                             : 20
Format                         : UTF-8
Codec ID                       : S_TEXT/UTF8
Codec ID/Info                  : UTF-8 Plain Text
Duration                       : 50 min 9 s
Bit rate                       : 39 b/s
Count of elements              : 521
Stream size                    : 14.6 KiB (0%)
Title                          : 日本語
Language                       : Japanese
Default                        : No
Forced                         : No

Text #18
ID                             : 21
Format                         : UTF-8
Codec ID                       : S_TEXT/UTF8
Codec ID/Info                  : UTF-8 Plain Text
Duration                       : 50 min 9 s
Bit rate                       : 59 b/s
Count of elements              : 516
Stream size                    : 21.8 KiB (0%)
Title                          : 한국어
Language                       : Korean
Default                        : No
Forced                         : No

Text #19
ID                             : 22
Format                         : UTF-8
Codec ID                       : S_TEXT/UTF8
Codec ID/Info                  : UTF-8 Plain Text
Duration                       : 50 min 9 s
Bit rate                       : 40 b/s
Count of elements              : 497
Stream size                    : 15.0 KiB (0%)
Title                          : Bahasa Malaysia
Language                       : Malay
Default                        : No
Forced                         : No

Text #20
ID                             : 23
Format                         : UTF-8
Codec ID                       : S_TEXT/UTF8
Codec ID/Info                  : UTF-8 Plain Text
Duration                       : 50 min 9 s
Bit rate                       : 38 b/s
Count of elements              : 443
Stream size                    : 14.3 KiB (0%)
Title                          : Norsk Bokmål
Language                       : Norwegian Bokmal
Default                        : No
Forced                         : No

Text #21
ID                             : 24
Format                         : UTF-8
Codec ID                       : S_TEXT/UTF8
Codec ID/Info                  : UTF-8 Plain Text
Duration                       : 50 min 9 s
Bit rate                       : 40 b/s
Count of elements              : 494
Stream size                    : 14.9 KiB (0%)
Title                          : Nederlands
Language                       : Dutch
Default                        : No
Forced                         : No

Text #22
ID                             : 25
Format                         : UTF-8
Codec ID                       : S_TEXT/UTF8
Codec ID/Info                  : UTF-8 Plain Text
Duration                       : 50 min 9 s
Bit rate                       : 41 b/s
Count of elements              : 493
Stream size                    : 15.3 KiB (0%)
Title                          : Polski
Language                       : Polish
Default                        : No
Forced                         : No

Text #23
ID                             : 26
Format                         : UTF-8
Codec ID                       : S_TEXT/UTF8
Codec ID/Info                  : UTF-8 Plain Text
Duration                       : 50 min 9 s
Bit rate                       : 41 b/s
Count of elements              : 476
Stream size                    : 15.2 KiB (0%)
Title                          : Português
Language                       : Portuguese
Default                        : No
Forced                         : No

Text #24
ID                             : 27
Format                         : UTF-8
Codec ID                       : S_TEXT/UTF8
Codec ID/Info                  : UTF-8 Plain Text
Duration                       : 50 min 9 s
Bit rate                       : 40 b/s
Count of elements              : 490
Stream size                    : 14.9 KiB (0%)
Title                          : Português (Brasil)
Language                       : Portuguese
Default                        : No
Forced                         : No

Text #25
ID                             : 28
Format                         : UTF-8
Codec ID                       : S_TEXT/UTF8
Codec ID/Info                  : UTF-8 Plain Text
Duration                       : 50 min 9 s
Bit rate                       : 46 b/s
Count of elements              : 499
Stream size                    : 17.1 KiB (0%)
Title                          : Romană
Language                       : Romanian
Default                        : No
Forced                         : No

Text #26
ID                             : 29
Format                         : UTF-8
Codec ID                       : S_TEXT/UTF8
Codec ID/Info                  : UTF-8 Plain Text
Duration                       : 50 min 9 s
Bit rate                       : 67 b/s
Count of elements              : 492
Stream size                    : 24.8 KiB (0%)
Title                          : Русский
Language                       : Russian
Default                        : No
Forced                         : No

Text #27
ID                             : 30
Format                         : UTF-8
Codec ID                       : S_TEXT/UTF8
Codec ID/Info                  : UTF-8 Plain Text
Duration                       : 50 min 9 s
Bit rate                       : 41 b/s
Count of elements              : 475
Stream size                    : 15.1 KiB (0%)
Title                          : Svenska
Language                       : Swedish
Default                        : No
Forced                         : No

Text #28
ID                             : 31
Format                         : UTF-8
Codec ID                       : S_TEXT/UTF8
Codec ID/Info                  : UTF-8 Plain Text
Duration                       : 50 min 9 s
Bit rate                       : 111 b/s
Count of elements              : 499
Stream size                    : 40.9 KiB (0%)
Title                          : ไทย
Language                       : Thai
Default                        : No
Forced                         : No

Text #29
ID                             : 32
Format                         : UTF-8
Codec ID                       : S_TEXT/UTF8
Codec ID/Info                  : UTF-8 Plain Text
Duration                       : 50 min 9 s
Bit rate                       : 41 b/s
Count of elements              : 491
Stream size                    : 15.3 KiB (0%)
Title                          : Türkçe
Language                       : Turkish
Default                        : No
Forced                         : No

Text #30
ID                             : 33
Format                         : UTF-8
Codec ID                       : S_TEXT/UTF8
Codec ID/Info                  : UTF-8 Plain Text
Duration                       : 50 min 10 s
Bit rate                       : 56 b/s
Count of elements              : 489
Stream size                    : 20.7 KiB (0%)
Title                          : Tiếng Việt
Language                       : Vietnamese
Default                        : No
Forced                         : No

Text #31
ID                             : 34
Format                         : UTF-8
Codec ID                       : S_TEXT/UTF8
Codec ID/Info                  : UTF-8 Plain Text
Duration                       : 50 min 9 s
Bit rate                       : 50 b/s
Count of elements              : 499
Stream size                    : 18.5 KiB (0%)
Title                          : 中文(简体)
Language                       : Chinese
Default                        : No
Forced                         : No

Text #32
ID                             : 35
Format                         : UTF-8
Codec ID                       : S_TEXT/UTF8
Codec ID/Info                  : UTF-8 Plain Text
Duration                       : 50 min 6 s
Bit rate                       : 47 b/s
Count of elements              : 540
Stream size                    : 17.4 KiB (0%)
Title                          : 中文(繁體)
Language                       : Chinese
Default                        : No
Forced                         : No

标签:无罪之最
分享快乐!
回复

使用道具 举报

 
您需要登录后才可以回帖 登录 | 立即注册

本版积分规则

0关注

14粉丝

856帖子

广告位
经典RPG武侠手游,安卓首发。
  • 版块推荐
  • 百宝箱
会员达人更多+
  • e2302

    主题:0 积分:11347
  • reese

    主题:0 积分:8396
  • powwow

    主题:0 积分:3294
广告位
经典RPG武侠手游,安卓首发。

信息推荐

更多+

最新信息

更多+

加入我们!分享快乐!

人人为我,我为人人!抵制吸血和收费分享行为!

从我做起!

只分享高品质影视资源

只求质量、不求数量、不抢首发!

Email:[email protected]

DHTCLUB - 高品质影视资源分享俱乐部