开启左侧

理想之城.The.Ideal.City.2021.WEB-DL.4k.H265.AAC-DHTCLUB

[复制链接]
dhtclub 发表于 2021-9-2 07:38 | 显示全部楼层 |阅读模式 打印 上一主题 下一主题

理想之城购买VIP查看下载地址(2021)4K 

简介该剧改编自若花燃燃的职场小说《苏筱的战争》,以建筑行业为背景,紧扣职场进阶和逆袭这一脉络展开剧情,讲述了造价师苏筱(孙俪 饰)因合作方推诿事件而被迫离职后,机缘巧合下进入赢海集团子公司天成建筑,在高压又精细的造价工作中,即使面对公司内的暗流涌动和天科建筑经济师夏明(赵又廷 饰)的强劲挑战,依旧秉持着“造价表的干净就是工程的干净”的职业信念,在一次次的激烈竞标中脱颖而出、也在一次次的斗智斗勇中经历职场的历练和洗礼,终于迎来事业的高光时刻和对人生理想的新感悟。
导演刘进
编剧周唯 / 罗虹
类型剧情 
地区中国内地 
语言普通话 
集数40集
资源大小36.8G
字幕语言内嵌简中 
豆瓣评分7.6
豆瓣链接https://movie.douban.com/subject/35047559/
IMDB评分无分
IMDB链接
演员表

理想之城 的主要演员表……

孙俪 / 赵又廷 / 于和伟 / 陈明昊 / 高叶 / 李传缨 / 张澍 / 李洪涛 / 赵君 / 钱漪 / 刘泊潇 / 杨超越 / 刘奕畅 / 许娣 / 施京明 / 尹铸胜 / 任重 / 翟小兴 / 何政军 / 扈耀之 / 岳旸 / 张天阳 / 代旭 / 张瑶 / 姜妍 / 田昊 / 傅首尔 / 鲍振江 / 李斌 / 林鹏 / 章涛 / 丁文博 / 程子铭 / 封新天 / 安冬 / 朱辉 / 卜宇鑫 / 王旭峰 / 金晖 / 屈扬 / 巩小榕 / 盛朗熙 / 卞涛 / 梁林琳 / 贺琦玉 / 段冉 / 霍雨佳 / 程巍 / 孙敏 / 张喜前 / 李荣东 / 王彦博 / 孙浩 / 马岩 / 周瑞 / 韩菲儿
影片介绍

理想之城 的剧情介绍……

该剧改编自若花燃燃的职场小说《苏筱的战争》,以建筑行业为背景,紧扣职场进阶和逆袭这一脉络展开剧情,讲述了造价师苏筱(孙俪 饰)因合作方推诿事件而被迫离职后,机缘巧合下进入赢海集团子公司天成建筑,在高压又精细的造价工作中,即使面对公司内的暗流涌动和天科建筑经济师夏明(赵又廷 饰)的强劲挑战,依旧秉持着“造价表的干净就是工程的干净”的职业信念,在一次次的激烈竞标中脱颖而出、也在一次次的斗智斗勇中经历职场的历练和洗礼,终于迎来事业的高光时刻和对人生理想的新感悟。
资源下载
1080i/p下载地址 点击查看
4K下载地址 点击查看
《理想之城》下载帮助和注意事项:
1、本站所有资源均为磁力链资源,无需注册登录即可查看下载地址
2、使用迅雷或网盘离线是无法下载资源的!必须使用BT下载工具,如果没有下载速度请添加我们提供的tracker服务器列表
3、推荐BT下载工具:比特彗星qbittorrentutorrent 内网使用路由请做好端口映射或开启UPnP
4、不管选择哪种P2P下载工具,都希望你能在条件允许的前提下不要限速多做种分享上传一段时间
5、刻意限制P2P下载工具的上传速度(此行为俗称:吸血)将影响你的下载速度 防止被吸血和防止运营商过滤的教程
6、人人为我我为人人,只有大家不限制上传速度,大家才能共同获得更快的下载速度,这才是P2P应有的良性循环!
7、所有资源来源网络,本站服务器不存储任何种子文件,如侵犯您的权益,请联系 [email protected] 删除资源
点评&资源版本介绍
 
理想之城.E01 大海战2 舰队使命 硬核RTS海战游戏-画面党手残党勿入.mp4.jpg
General
Format                         : MPEG-4
Format profile                 : Base Media
Codec ID                       : isom (isom/iso2/mp41)
File size                      : 592 MiB
Duration                       : 45 min 50 s
Overall bit rate               : 1 806 kb/s
Writing application            : Lavf57.83.100

Video
ID                             : 1
Format                         : HEVC
Format/Info                    : High Efficiency Video Coding
Format profile                 : [email protected]@Main
Codec ID                       : hev1
Codec ID/Info                  : High Efficiency Video Coding
Duration                       : 45 min 50 s
Bit rate                       : 1 609 kb/s
Width                          : 3 840 pixels
Height                         : 2 160 pixels
Display aspect ratio           : 16:9
Frame rate mode                : Constant
Frame rate                     : 25.000 FPS
Color space                    : YUV
Chroma subsampling             : 4:2:0
Bit depth                      : 8 bits
Bits/(Pixel*Frame)             : 0.008
Stream size                    : 528 MiB (89%)
Codec configuration box        : hvcC

Audio
ID                             : 2
Format                         : AAC LC
Format/Info                    : Advanced Audio Codec Low Complexity
Codec ID                       : mp4a-40-2
Duration                       : 45 min 50 s
Bit rate mode                  : Constant
Bit rate                       : 192 kb/s
Channel(s)                     : 2 channels
Channel layout                 : L R
Sampling rate                  : 44.1 kHz
Frame rate                     : 43.066 FPS (1024 SPF)
Compression mode               : Lossy
Stream size                    : 62.3 MiB (11%)
Default                        : Yes
Alternate group                : 1


分享快乐!
回复

使用道具 举报

 
您需要登录后才可以回帖 登录 | 立即注册

本版积分规则

0关注

14粉丝

856帖子

广告位
经典RPG武侠手游,安卓首发。
  • 版块推荐
  • 百宝箱
会员达人更多+
  • e2302

    主题:0 积分:11347
  • reese

    主题:0 积分:8396
  • powwow

    主题:0 积分:3294
广告位
经典RPG武侠手游,安卓首发。

信息推荐

更多+

最新信息

更多+

加入我们!分享快乐!

人人为我,我为人人!抵制吸血和收费分享行为!

从我做起!

只分享高品质影视资源

只求质量、不求数量、不抢首发!

Email:[email protected]

DHTCLUB - 高品质影视资源分享俱乐部