开启左侧

扫黑风暴.Crime.Crackdown.2021.WEB-DL.1080p.H264.AAC-DHTCLUB

[复制链接]
dhtclub 发表于 2021-9-2 13:08 | 显示全部楼层 |阅读模式 打印 上一主题 下一主题

扫黑风暴购买VIP查看下载地址(2021)1080P 

简介作为一线刑警的李成阳(孙红雷 饰),不断遭到保护伞的打击,黑恶势力的陷害,甚至顶头上司,公安局长等人为了阻止他的调查而构陷他,导致他身陷囹圄,最终在中政委和中央督导组的指挥和领导下重获自由,后来他联合公检法司各部门,将盘踞在中江市十几年的两大黑恶势力团伙一网打尽,并将黑恶势力的保护伞和腐败的政府官员绳之以法,还中江政坛一个干净的政治生态,还中江百姓一个清朗的社会环境。
导演五百
编剧祖若蒙 / 于小千 / 佟睦
类型剧情 罪案 
地区中国内地 
语言普通话 
集数28集
资源大小29.9G
字幕语言内嵌简中 
豆瓣评分7.5
豆瓣链接https://movie.douban.com/subject/35202793/
IMDB评分无分
IMDB链接
演员表

扫黑风暴 的主要演员表……

孙红雷 / 张艺兴 / 刘奕君 / 吴越 / 江疏影 / 王志飞 / 刘之冰 / 吴晓亮 / 宁理 / 车晓 / 苏可 / 谭凯 / 侯长荣 / 孙浩 / 周晓鸥 / 王骏迪 / 周知 / 赵小锐 / 郑晓宁 / 姜瑞佳 / 葛四 / 孙筱钧 / 齐超 / 李飞 / 赵卫国 / 郭秋成 / 张弓 / 文予琪 / 刘扬 / 王妍之 / 张皓然 / 杨雨潼 / 张浩天 / 刘柠昊 / 单思杰 / 陈芷琰 / 曹艳艳 / 杨奇雨 / 周凯文 / 田璐 / 成止微 / 项洪 / 周涌海 / 李先亮 / 周宸阳 / 常铖 / 栾茗媛 / 丁志勇 / 张继南 / 朱怀旭 / 付美 / 赵晓光 / 曹阳 / 单文彬 / 吕昕
影片介绍

扫黑风暴 的剧情介绍……

作为一线刑警的李成阳(孙红雷 饰),不断遭到保护伞的打击,黑恶势力的陷害,甚至顶头上司,公安局长等人为了阻止他的调查而构陷他,导致他身陷囹圄,最终在中政委和中央督导组的指挥和领导下重获自由,后来他联合公检法司各部门,将盘踞在中江市十几年的两大黑恶势力团伙一网打尽,并将黑恶势力的保护伞和腐败的政府官员绳之以法,还中江政坛一个干净的政治生态,还中江百姓一个清朗的社会环境。
资源下载
1080i/p下载地址 点击查看
4K下载地址 点击查看
《扫黑风暴》下载帮助和注意事项:
1、本站所有资源均为磁力链资源,无需注册登录即可查看下载地址
2、使用迅雷或网盘离线是无法下载资源的!必须使用BT下载工具,如果没有下载速度请添加我们提供的tracker服务器列表
3、推荐BT下载工具:比特彗星qbittorrentutorrent 内网使用路由请做好端口映射或开启UPnP
4、不管选择哪种P2P下载工具,都希望你能在条件允许的前提下不要限速多做种分享上传一段时间
5、刻意限制P2P下载工具的上传速度(此行为俗称:吸血)将影响你的下载速度 防止被吸血和防止运营商过滤的教程
6、人人为我我为人人,只有大家不限制上传速度,大家才能共同获得更快的下载速度,这才是P2P应有的良性循环!
7、所有资源来源网络,本站服务器不存储任何种子文件,如侵犯您的权益,请联系 [email protected] 删除资源
点评&资源版本介绍
 
扫黑风暴.E01 大海战2 舰队使命 硬核RTS海战游戏-画面党手残党勿入.mp4.jpg
General
Format                         : MPEG-4
Format profile                 : Base Media
Codec ID                       : isom (isom/iso2/avc1/mp41)
File size                      : 630 MiB
Duration                       : 43 min 24 s
Overall bit rate               : 2 028 kb/s
Writing application            : Lavf58.29.100

Video
ID                             : 1
Format                         : AVC
Format/Info                    : Advanced Video Codec
Format profile                 : [email protected]
Format settings                : CABAC / 4 Ref Frames
Format settings, CABAC         : Yes
Format settings, Reference fra : 4 frames
Codec ID                       : avc1
Codec ID/Info                  : Advanced Video Coding
Duration                       : 43 min 24 s
Bit rate                       : 1 929 kb/s
Width                          : 1 920 pixels
Height                         : 958 pixels
Display aspect ratio           : 2.004
Frame rate mode                : Variable
Frame rate                     : 25.000 FPS
Minimum frame rate             : 24.993 FPS
Maximum frame rate             : 25.007 FPS
Color space                    : YUV
Chroma subsampling             : 4:2:0
Bit depth                      : 8 bits
Scan type                      : Progressive
Bits/(Pixel*Frame)             : 0.042
Stream size                    : 599 MiB (95%)
Writing library                : ptw-1.0.134 rcm-adapt vs-96
Color range                    : Limited
Color primaries                : BT.709
Transfer characteristics       : BT.709
Matrix coefficients            : BT.709
Codec configuration box        : avcC

Audio
ID                             : 2
Format                         : AAC LC
Format/Info                    : Advanced Audio Codec Low Complexity
Codec ID                       : mp4a-40-2
Duration                       : 43 min 24 s
Bit rate mode                  : Constant
Bit rate                       : 93.4 kb/s
Channel(s)                     : 2 channels
Channel layout                 : L R
Sampling rate                  : 48.0 kHz
Frame rate                     : 46.875 FPS (1024 SPF)
Compression mode               : Lossy
Stream size                    : 29.0 MiB (5%)
Default                        : Yes
Alternate group                : 1



分享快乐!
回复

使用道具 举报

 

精彩评论3

正序浏览
19112172631 发表于 2021-9-2 14:04 | 显示全部楼层
 
下载不了啊有什么解决办法吗
分享快乐!
回复

使用道具 举报

 
dhtclub 发表于 2021-9-2 18:17 | 显示全部楼层
 
19112172631 发表于 2021-9-2 14:04
下载不了啊有什么解决办法吗



清仔细阅读,谢谢

《扫黑风暴》下载帮助和注意事项:1、本站所有资源均为磁力链资源,无需注册登录即可查看下载地址2、使用迅雷或网盘离线是无法下载资源的!必须使用BT下载工具,如果没有下载速度请添加我们提供的tracker服务器列表3、推荐BT下载工具:比特彗星qbittorrentutorrent 内网使用路由请做好端口映射或开启UPnP4、不管选择哪种P2P下载工具,都希望你能在条件允许的前提下不要限速多做种分享上传一段时间5、刻意限制P2P下载工具的上传速度(此行为俗称:吸血)将影响你的下载速度 防止被吸血和防止运营商过滤的教程6、人人为我我为人人,只有大家不限制上传速度,大家才能共同获得更快的下载速度,这才是P2P应有的良性循环!7、所有资源来源网络,本站服务器不存储任何种子文件,如侵犯您的权益,请联系 [email protected] 删除资源
分享快乐!
回复

使用道具 举报

 
 楼主| 19112172631 发表于 2021-9-4 10:53 | 显示全部楼层
 
dhtclub 发表于 2021-9-2 18:17
清仔细阅读,谢谢

《扫黑风暴》下载帮助和注意事项:1、本站所有资源均为磁力链资源,无需注册登 ...

好的,谢谢!
分享快乐!
回复

使用道具 举报

 
您需要登录后才可以回帖 登录 | 立即注册

本版积分规则

0关注

14粉丝

856帖子

广告位
经典RPG武侠手游,安卓首发。
  • 版块推荐
  • 百宝箱
会员达人更多+
  • e2302

    主题:0 积分:11347
  • reese

    主题:0 积分:8396
  • powwow

    主题:0 积分:3294
广告位
经典RPG武侠手游,安卓首发。

信息推荐

更多+

最新信息

更多+

加入我们!分享快乐!

人人为我,我为人人!抵制吸血和收费分享行为!

从我做起!

只分享高品质影视资源

只求质量、不求数量、不抢首发!

Email:[email protected]

DHTCLUB - 高品质影视资源分享俱乐部