开启左侧

极限挑战.第二季.Go.Fighting.S02.2016.1080p.WEB-DL.H265.AAC-DHTCLUB

[复制链接]
dhtclub 发表于 2021-9-8 17:34 | 显示全部楼层 |阅读模式 打印 上一主题 下一主题

极限挑战 第二季购买VIP查看下载地址(2016)1080P 

简介《极限挑战第二季》是上海东方卫视推出的大型励志体验真人秀节目,节目共12期,第二季节目六位固定成员是黄渤、孙红雷、黄磊、罗志祥、王迅、张艺兴。
  《极限挑战第二季》每一期节目都围绕一个社会热点或时代背景而展开,节目中“极限男人帮”体验过出租车司机、家政服务等最平凡普通的职业;常走在城市街头,与普通百姓“亲密接触”,而路人们不再仅仅只是围观,也可能为节目的进展起到关键作用。
  节目于2016年4月17日起每周日晚21:00接档《欢乐喜剧人第二季》在东方卫视首播,24点优酷土豆独播。
导演任静 / 严敏
编剧未知
类型真人秀 
地区中国内地 
语言普通话 
集数12集
资源大小31.9G
字幕语言内嵌简中 
豆瓣评分9.3
豆瓣链接https://movie.douban.com/subject/26615572/
IMDB评分升级VIP查看密码
IMDB链接
演员表

极限挑战 第二季 的主要演员表……

黄渤 / 孙红雷 / 黄磊 / 罗志祥 / 张艺兴 / 王迅 / 薛之谦 / 岳云鹏 / 宋小宝 / 林志玲 / 王自健 / 谢娜 / 蒋劲夫 / 王大陆 / 庾澄庆 / 林俊杰 / 蔡依林 / 杨魏玲花 / 曾毅
影片介绍

极限挑战 第二季 的剧情介绍……

《极限挑战第二季》是上海东方卫视推出的大型励志体验真人秀节目,节目共12期,第二季节目六位固定成员是黄渤、孙红雷、黄磊、罗志祥、王迅、张艺兴。
  《极限挑战第二季》每一期节目都围绕一个社会热点或时代背景而展开,节目中“极限男人帮”体验过出租车司机、家政服务等最平凡普通的职业;常走在城市街头,与普通百姓“亲密接触”,而路人们不再仅仅只是围观,也可能为节目的进展起到关键作用。
  节目于2016年4月17日起每周日晚21:00接档《欢乐喜剧人第二季》在东方卫视首播,24点优酷土豆独播。
资源下载
1080i/p下载地址 点击查看
4K下载地址 点击查看
《极限挑战 第二季》下载帮助和注意事项:
1、本站所有资源均为磁力链资源,无需注册登录即可查看下载地址
2、使用迅雷或网盘离线是无法下载资源的!必须使用BT下载工具,如果没有下载速度请添加我们提供的tracker服务器列表
3、推荐BT下载工具:比特彗星qbittorrentutorrent 内网使用路由请做好端口映射或开启UPnP
4、不管选择哪种P2P下载工具,都希望你能在条件允许的前提下不要限速多做种分享上传一段时间
5、刻意限制P2P下载工具的上传速度(此行为俗称:吸血)将影响你的下载速度 防止被吸血和防止运营商过滤的教程
6、人人为我我为人人,只有大家不限制上传速度,大家才能共同获得更快的下载速度,这才是P2P应有的良性循环!
7、所有资源来源网络,本站服务器不存储任何种子文件,如侵犯您的权益,请联系 [email protected] 删除资源
点评&资源版本介绍
 
极限挑战.第二季.E01 大海战2 舰队使命 硬核RTS海战游戏-画面党手残党勿入.mp4.jpg
General
Format                         : MPEG-4
Format profile                 : Base Media
Codec ID                       : isom (isom/iso2/mp41)
File size                      : 2.37 GiB
Duration                       : 1 h 22 min
Overall bit rate mode          : Variable
Overall bit rate               : 4 105 kb/s
Writing application            : Lavf58.12.100

Video
ID                             : 1
Format                         : HEVC
Format/Info                    : High Efficiency Video Coding
Format profile                 : [email protected]@High
Codec ID                       : hev1
Codec ID/Info                  : High Efficiency Video Coding
Duration                       : 1 h 22 min
Bit rate                       : 3 974 kb/s
Width                          : 1 920 pixels
Height                         : 1 080 pixels
Display aspect ratio           : 16:9
Frame rate mode                : Constant
Frame rate                     : 25.000 FPS
Color space                    : YUV
Chroma subsampling             : 4:2:0
Bit depth                      : 8 bits
Bits/(Pixel*Frame)             : 0.077
Stream size                    : 2.30 GiB (97%)
Codec configuration box        : hvcC

Audio
ID                             : 2
Format                         : AAC LC
Format/Info                    : Advanced Audio Codec Low Complexity
Codec ID                       : mp4a-40-2
Duration                       : 1 h 22 min
Bit rate mode                  : Variable
Bit rate                       : 124 kb/s
Maximum bit rate               : 126 kb/s
Channel(s)                     : 2 channels
Channel layout                 : L R
Sampling rate                  : 44.1 kHz
Frame rate                     : 43.066 FPS (1024 SPF)
Compression mode               : Lossy
Stream size                    : 73.6 MiB (3%)
Default                        : Yes
Alternate group                : 1


分享快乐!
回复

使用道具 举报

 
您需要登录后才可以回帖 登录 | 立即注册

本版积分规则

0关注

14粉丝

856帖子

广告位
经典RPG武侠手游,安卓首发。
  • 版块推荐
  • 百宝箱
会员达人更多+
  • e2302

    主题:0 积分:11347
  • reese

    主题:0 积分:8396
  • powwow

    主题:0 积分:3294
广告位
经典RPG武侠手游,安卓首发。

信息推荐

更多+

最新信息

更多+

加入我们!分享快乐!

人人为我,我为人人!抵制吸血和收费分享行为!

从我做起!

只分享高品质影视资源

只求质量、不求数量、不抢首发!

Email:[email protected]

DHTCLUB - 高品质影视资源分享俱乐部