开启左侧

白蛇2:青蛇劫起.White.Snake.2.Green.Snake.2021.WEB-DL.4K.H265.Dolby-DHTCLUB

[复制链接]
dhtclub 发表于 2021-9-10 23:34 | 显示全部楼层 |阅读模式 打印 上一主题 下一主题

白蛇2:青蛇劫起White Snake 2 GreenSnake(2021)4K 

简介南宋末年,小白为救许仙水漫金山,终被法海压在雷峰塔下。小青则意外被法海打入诡异的修罗城幻境。几次危机中小青被神秘蒙面少年所救,小青带着出去救出小白的执念历经劫难与成长,同蒙面少年一起寻找离开的办法。
导演黄家康
编剧大毛
类型动画 冒险 奇幻 
地区中国内地 
语言普通话 
时长132分钟
资源大小6.2G
字幕语言内嵌简中 
豆瓣评分7.2
豆瓣链接https://movie.douban.com/subject/30435124/
IMDB评分6.9
IMDB链接https://www.imdb.com/title/tt15000314/
演员表

白蛇2:青蛇劫起 的主要演员表……

唐小喜 / 歪歪 / 魏超 / 赵铭洲 / 郑小璞 / 马程 / 宋旭晨 / 邱秋 / 张凯 / 徐佳琦 / 关帅 / 张碧玉 / 张喆 / 杨天翔 / 宝木中阳 / 林强
影片介绍

白蛇2:青蛇劫起 的剧情介绍……

南宋末年,小白为救许仙水漫金山,终被法海压在雷峰塔下。小青则意外被法海打入诡异的修罗城幻境。几次危机中小青被神秘蒙面少年所救,小青带着出去救出小白的执念历经劫难与成长,同蒙面少年一起寻找离开的办法。
资源下载
1080i/p下载地址 点击查看
4K下载地址 点击查看
《白蛇2:青蛇劫起》下载帮助和注意事项:
1、本站所有资源均为磁力链资源,无需注册登录即可查看下载地址
2、使用迅雷或网盘离线是无法下载资源的!必须使用BT下载工具,如果没有下载速度请添加我们提供的tracker服务器列表
3、推荐BT下载工具:比特彗星qbittorrentutorrent 内网使用路由请做好端口映射或开启UPnP
4、不管选择哪种P2P下载工具,都希望你能在条件允许的前提下不要限速多做种分享上传一段时间
5、刻意限制P2P下载工具的上传速度(此行为俗称:吸血)将影响你的下载速度 防止被吸血和防止运营商过滤的教程
6、人人为我我为人人,只有大家不限制上传速度,大家才能共同获得更快的下载速度,这才是P2P应有的良性循环!
7、所有资源来源网络,本站服务器不存储任何种子文件,如侵犯您的权益,请联系 [email protected] 删除资源
点评&资源版本介绍
 
白蛇2:青蛇劫起 大海战2 舰队使命 硬核RTS海战游戏-画面党手残党勿入.mkv.jpg
General
Unique ID                      : 327656659713206641942502825834634804662 (0xF6806092EDC9371A1606C4DF8FE3FDB6)
Format                         : Matroska
Format version                 : Version 4
File size                      : 6.07 GiB
Duration                       : 2 h 12 min
Overall bit rate               : 6 577 kb/s
Encoded date                   : UTC 2021-09-10 02:11:19
Writing application            : mkvmerge v58.0.0 ('Supper's Ready') 64-bit
Writing library                : libebml v1.4.2 + libmatroska v1.6.4

Video
ID                             : 1
Format                         : HEVC
Format/Info                    : High Efficiency Video Coding
Format profile                 : [email protected]@Main
Codec ID                       : V_MPEGH/ISO/HEVC
Duration                       : 2 h 12 min
Bit rate                       : 5 675 kb/s
Width                          : 3 840 pixels
Height                         : 1 626 pixels
Display aspect ratio           : 2.35:1
Frame rate mode                : Constant
Frame rate                     : 24.000 FPS
Color space                    : YUV
Chroma subsampling             : 4:2:0
Bit depth                      : 8 bits
Bits/(Pixel*Frame)             : 0.038
Stream size                    : 5.23 GiB (86%)
Writing library                : HW265_Code
Default                        : Yes
Forced                         : No
Color range                    : Limited
Color primaries                : BT.709
Transfer characteristics       : BT.709
Matrix coefficients            : BT.709

Audio #1
ID                             : 2
Format                         : E-AC-3 JOC
Format/Info                    : Enhanced AC-3 with Joint Object Coding
Commercial name                : Dolby Digital Plus with Dolby Atmos
Codec ID                       : A_EAC3
Duration                       : 2 h 12 min
Bit rate mode                  : Constant
Bit rate                       : 768 kb/s
Channel(s)                     : 6 channels
Channel layout                 : L R C LFE Ls Rs
Sampling rate                  : 48.0 kHz
Frame rate                     : 31.250 FPS (1536 SPF)
Compression mode               : Lossy
Stream size                    : 725 MiB (12%)
Language                       : Chinese
Service kind                   : Complete Main
Default                        : Yes
Forced                         : No
Complexity index               : 16
Number of dynamic objects      : 15
Bed channel count              : 1 channel
Bed channel configuration      : LFE

Audio #2
ID                             : 3
Format                         : AAC LC SBR
Format/Info                    : Advanced Audio Codec Low Complexity with Spectral Band Replication
Commercial name                : HE-AAC
Format settings                : NBC
Codec ID                       : A_AAC-5
Duration                       : 2 h 12 min
Bit rate                       : 132 kb/s
Channel(s)                     : 6 channels
Channel layout                 : C L R Ls Rs LFE
Sampling rate                  : 48.0 kHz
Frame rate                     : 23.438 FPS (2048 SPF)
Compression mode               : Lossy
Stream size                    : 124 MiB (2%)
Language                       : Chinese
Default                        : No
Forced                         : No


分享快乐!
回复

使用道具 举报

 

精彩评论1

正序浏览
beyondsega 发表于 2021-9-20 16:33 | 显示全部楼层
 
能不能设置一个可以按发帖时间排序的,这样查起来一目了然
分享快乐!
回复

使用道具 举报

 
您需要登录后才可以回帖 登录 | 立即注册

本版积分规则

0关注

14粉丝

856帖子

广告位
经典RPG武侠手游,安卓首发。
  • 版块推荐
  • 百宝箱
会员达人更多+
  • e2302

    主题:0 积分:11347
  • reese

    主题:0 积分:8396
  • powwow

    主题:0 积分:3294
广告位
经典RPG武侠手游,安卓首发。

信息推荐

更多+

最新信息

更多+

加入我们!分享快乐!

人人为我,我为人人!抵制吸血和收费分享行为!

从我做起!

只分享高品质影视资源

只求质量、不求数量、不抢首发!

Email:[email protected]

DHTCLUB - 高品质影视资源分享俱乐部