开启左侧

云南虫谷.Candle.in.the.Tomb.The.Worm.Valley.2021.1080p.WEB-DL.H264.AAC-DHTCLUB

[复制链接]
dhtclub 发表于 2021-9-14 00:30 | 显示全部楼层 |阅读模式 打印 上一主题 下一主题

云南虫谷购买VIP查看下载地址(2021)1080P 

简介网剧《云南虫谷》改编自天下霸唱小说《鬼吹灯之云南虫谷》,承接《龙岭迷窟》剧情,讲述了由胡八一(潘粤明 饰)、Shirley杨(张雨绮 饰)、王胖子(姜超 饰)组成的探险三人组查到传闻中救人性命的雮尘珠成为了古滇国献王墓的随葬品,特深入瘴疠之地探寻雮尘珠踪迹的故事。
  三人依照一 张人皮地图穿过遮龙山下古滇国秘密地下水道,不料遭遇千年趸兀汕贤蚋雠ブ瞥傻摹隘俑”像炸弹一样倒悬在洞顶,当它们接二连三地落入水中,引发的却是一连串的弱肉强食,一物降一物;丛林中夜现“SOS”电码,是曾经葬身此地的飞虎队队员怨魂作祟,还是献王的大祭师设下的迷局…
导演费振翔
编剧刘安琪 / 沈娟 / 李宗凡
类型动作 剧情 冒险 
地区中国内地 
语言普通话 
集数16集
资源大小23.6G
字幕语言内嵌简中 
豆瓣评分6.9
豆瓣链接https://movie.douban.com/subject/35042912/
IMDB评分6.5
IMDB链接https://www.imdb.com/title/tt15299712/
演员表

云南虫谷 的主要演员表……

潘粤明 / 张雨绮 / 姜超 / 李晨 / 梁天 / 王奎荣 / 佟磊 / 胡晓光 / 季东燃 / 赵昱童 / 郑伊鸣 / 梁栋 / 黄婧仪 / 杨潇洒
影片介绍

云南虫谷 的剧情介绍……

网剧《云南虫谷》改编自天下霸唱小说《鬼吹灯之云南虫谷》,承接《龙岭迷窟》剧情,讲述了由胡八一(潘粤明 饰)、Shirley杨(张雨绮 饰)、王胖子(姜超 饰)组成的探险三人组查到传闻中救人性命的雮尘珠成为了古滇国献王墓的随葬品,特深入瘴疠之地探寻雮尘珠踪迹的故事。
  三人依照一 张人皮地图穿过遮龙山下古滇国秘密地下水道,不料遭遇千年趸兀汕贤蚋雠ブ瞥傻摹隘俑”像炸弹一样倒悬在洞顶,当它们接二连三地落入水中,引发的却是一连串的弱肉强食,一物降一物;丛林中夜现“SOS”电码,是曾经葬身此地的飞虎队队员怨魂作祟,还是献王的大祭师设下的迷局…
资源下载
1080i/p下载地址 点击查看
4K下载地址 点击查看
《云南虫谷》下载帮助和注意事项:
1、本站所有资源均为磁力链资源,无需注册登录即可查看下载地址
2、使用迅雷或网盘离线是无法下载资源的!必须使用BT下载工具,如果没有下载速度请添加我们提供的tracker服务器列表
3、推荐BT下载工具:比特彗星qbittorrentutorrent 内网使用路由请做好端口映射或开启UPnP
4、不管选择哪种P2P下载工具,都希望你能在条件允许的前提下不要限速多做种分享上传一段时间
5、刻意限制P2P下载工具的上传速度(此行为俗称:吸血)将影响你的下载速度 防止被吸血和防止运营商过滤的教程
6、人人为我我为人人,只有大家不限制上传速度,大家才能共同获得更快的下载速度,这才是P2P应有的良性循环!
7、所有资源来源网络,本站服务器不存储任何种子文件,如侵犯您的权益,请联系 [email protected] 删除资源
点评&资源版本介绍
 
云南虫谷.EP01 大海战2 舰队使命 硬核RTS海战游戏-画面党手残党勿入.mp4.jpg
General
Format                         : MPEG-4
Format profile                 : Base Media
Codec ID                       : isom (isom/iso2/avc1/mp41)
File size                      : 1.55 GiB
Duration                       : 39 min 50 s
Overall bit rate               : 5 562 kb/s
Writing application            : Lavf58.38.101

Video
ID                             : 1
Format                         : AVC
Format/Info                    : Advanced Video Codec
Format profile                 : [email protected]
Format settings                : CABAC / 4 Ref Frames
Format settings, CABAC         : Yes
Format settings, Reference fra : 4 frames
Codec ID                       : avc1
Codec ID/Info                  : Advanced Video Coding
Duration                       : 39 min 50 s
Bit rate                       : 5 462 kb/s
Width                          : 1 920 pixels
Height                         : 804 pixels
Display aspect ratio           : 2.40:1
Frame rate mode                : Variable
Frame rate                     : 25.000 FPS
Minimum frame rate             : 24.993 FPS
Maximum frame rate             : 25.007 FPS
Color space                    : YUV
Chroma subsampling             : 4:2:0
Bit depth                      : 8 bits
Scan type                      : Progressive
Bits/(Pixel*Frame)             : 0.142
Stream size                    : 1.52 GiB (98%)
Writing library                : ptw-1.0.134 rcm-adapt vs-97 vwk
Color range                    : Limited
Color primaries                : BT.709
Transfer characteristics       : BT.709
Matrix coefficients            : BT.709
Codec configuration box        : avcC

Audio
ID                             : 2
Format                         : AAC LC
Format/Info                    : Advanced Audio Codec Low Complexity
Codec ID                       : mp4a-40-2
Duration                       : 39 min 50 s
Bit rate mode                  : Constant
Bit rate                       : 93.4 kb/s
Channel(s)                     : 2 channels
Channel layout                 : L R
Sampling rate                  : 48.0 kHz
Frame rate                     : 46.875 FPS (1024 SPF)
Compression mode               : Lossy
Stream size                    : 26.6 MiB (2%)
Default                        : Yes
Alternate group                : 1


标签:云南虫valley
分享快乐!
回复

使用道具 举报

 

精彩评论2

正序浏览
飞猪 发表于 2021-9-14 15:43 | 显示全部楼层
 
感谢楼主分享!

潘粤明 / 张雨绮 / 姜超 经典三人组
分享快乐!
回复

使用道具 举报

 
huanlan59 发表于 2021-9-15 19:30 | 显示全部楼层
 
感谢分享,什么时候能有4K版呢?
分享快乐!
回复

使用道具 举报

 
您需要登录后才可以回帖 登录 | 立即注册

本版积分规则

0关注

14粉丝

856帖子

广告位
经典RPG武侠手游,安卓首发。
  • 版块推荐
  • 百宝箱
会员达人更多+
  • e2302

    主题:0 积分:11347
  • reese

    主题:0 积分:8396
  • powwow

    主题:0 积分:3294
广告位
经典RPG武侠手游,安卓首发。

信息推荐

更多+

最新信息

更多+

加入我们!分享快乐!

人人为我,我为人人!抵制吸血和收费分享行为!

从我做起!

只分享高品质影视资源

只求质量、不求数量、不抢首发!

Email:[email protected]

DHTCLUB - 高品质影视资源分享俱乐部