开启左侧

逆局.Danger.Zone.2021.2160p.WEB-DL.H265.DD5.1-DHTCLUB

[复制链接]
dhtclub 发表于 2021-12-22 18:16 | 显示全部楼层 |阅读模式 打印 上一主题 下一主题

逆局购买VIP查看下载地址(2021)4K 

简介没有破绽的犯罪手法,查无凶手的连续杀人案…!
  一桩桩悬案迫使警方与罪犯不得不携手合作,深入命案现场与凶手博弈对决,为死者伸张正义。双雄联手出击的强强对决,却让这场魔鬼交易暗潮汹涌,即将引发另一波更大的致命危机!
导演庄绚维 / 陈冠仲
编剧于尚民
类型悬疑 罪案 
地区中国台湾 
语言普通话 
集数24集
资源大小36.2G
字幕语言内嵌简中 内嵌繁中 
豆瓣评分8.3
豆瓣链接https://movie.douban.com/subject/35240435/
IMDB评分7.8
IMDB链接https://www.imdb.com/title/tt15374276/
演员表

逆局 的主要演员表……

周渝民 / 朱轩洋 / 李铭顺 / 张榕容 / 刘亮佐 / 马念先 / 吴兴国 / 辛乐儿 / 黄迪掦 / 姜康哲 / 草爷 / 阳靓 / 曾敬骅 / 纪培慧 / 吴昆达 / 郑人硕 / 林鹤轩 / 张少怀 / 张书伟 / 夏腾宏 / 蔡灿得 / 钟瑶 / 陈家逵 / 阮安妮 / 纪殷泽 / 夏靖庭 / 陈诗雅 / 张耀仁 / 张毓晨 / 温升豪 / 曾珮瑜 / 陈妍霏 / 汤志伟 / 谢琼煖 / 罗北安 / 姚以缇 / 林予晞 / 李铭忠 / 陈婉婷 / 张翰
影片介绍

逆局 的剧情介绍……

没有破绽的犯罪手法,查无凶手的连续杀人案…!
  一桩桩悬案迫使警方与罪犯不得不携手合作,深入命案现场与凶手博弈对决,为死者伸张正义。双雄联手出击的强强对决,却让这场魔鬼交易暗潮汹涌,即将引发另一波更大的致命危机!
资源下载
1080i/p下载地址 点击查看
4K下载地址 点击查看
《逆局》下载帮助和注意事项:
1、本站所有资源均为磁力链资源,无需注册登录即可查看下载地址
2、使用迅雷或网盘离线是无法下载资源的!必须使用BT下载工具,如果没有下载速度请添加我们提供的tracker服务器列表
3、推荐BT下载工具:比特彗星qbittorrentutorrent 内网使用路由请做好端口映射或开启UPnP
4、不管选择哪种P2P下载工具,都希望你能在条件允许的前提下不要限速多做种分享上传一段时间
5、刻意限制P2P下载工具的上传速度(此行为俗称:吸血)将影响你的下载速度 防止被吸血和防止运营商过滤的教程
6、人人为我我为人人,只有大家不限制上传速度,大家才能共同获得更快的下载速度,这才是P2P应有的良性循环!
7、所有资源来源网络,本站服务器不存储任何种子文件,如侵犯您的权益,请联系 [email protected] 删除资源
点评&资源版本介绍

点评

海!外直播 abre.ai/4422 禁闻视频 v.ht/fjjj 好多年前,我在上海本地某论坛混的时候,去过那个网站,整整一层楼面办公的都是管理员,专门删贴的。网络是智力密集型行业,在中国却是劳动力密集型的。  发表于 2022-9-20 08:16
 
逆局.E01 大海战2 舰队使命 硬核RTS海战游戏-画面党手残党勿入.mkv.jpg

General
Unique ID                      : 1852523648077232796987109302260645723 (0x164C877B6217EB15FD96429DCAABF5B)
Format                         : Matroska
Format version                 : Version 4
File size                      : 1.67 GiB
Duration                       : 54 min 52 s
Overall bit rate               : 4 356 kb/s
Encoded date                   : UTC 2021-11-06 14:16:32
Writing application            : mkvmerge v47.0.0 ('Black Flag') 64-bit
Writing library                : libebml v1.3.10 + libmatroska v1.5.2

Video
ID                             : 1
Format                         : HEVC
Format/Info                    : High Efficiency Video Coding
Format profile                 : [email protected]@Main
Codec ID                       : V_MPEGH/ISO/HEVC
Duration                       : 54 min 51 s
Bit rate                       : 3 907 kb/s
Width                          : 3 840 pixels
Height                         : 2 160 pixels
Display aspect ratio           : 16:9
Frame rate mode                : Constant
Frame rate                     : 25.000 FPS
Color space                    : YUV
Chroma subsampling             : 4:2:0
Bit depth                      : 8 bits
Bits/(Pixel*Frame)             : 0.019
Stream size                    : 1.50 GiB (90%)
Default                        : Yes
Forced                         : No

Audio #1
ID                             : 2
Format                         : AAC LC
Format/Info                    : Advanced Audio Codec Low Complexity
Codec ID                       : A_AAC-2
Duration                       : 54 min 52 s
Bit rate                       : 192 kb/s
Channel(s)                     : 2 channels
Channel layout                 : L R
Sampling rate                  : 44.1 kHz
Frame rate                     : 43.066 FPS (1024 SPF)
Compression mode               : Lossy
Stream size                    : 74.5 MiB (4%)
Default                        : Yes
Forced                         : No

Audio #2
ID                             : 3
Format                         : E-AC-3
Format/Info                    : Enhanced AC-3
Commercial name                : Dolby Digital Plus
Codec ID                       : A_EAC3
Duration                       : 54 min 51 s
Bit rate mode                  : Constant
Bit rate                       : 256 kb/s
Channel(s)                     : 6 channels
Channel layout                 : L R C LFE Ls Rs
Sampling rate                  : 48.0 kHz
Frame rate                     : 31.250 FPS (1536 SPF)
Compression mode               : Lossy
Stream size                    : 100 MiB (6%)
Title                          : DD5.1
Service kind                   : Complete Main
Default                        : No
Forced                         : No

Text #1
ID                             : 4
Format                         : UTF-8
Codec ID                       : S_TEXT/UTF8
Codec ID/Info                  : UTF-8 Plain Text
Duration                       : 53 min 1 s
Bit rate                       : 47 b/s
Count of elements              : 967
Stream size                    : 18.4 KiB (0%)
Title                          : 简体中文
Default                        : Yes
Forced                         : No

Text #2
ID                             : 5
Format                         : UTF-8
Codec ID                       : S_TEXT/UTF8
Codec ID/Info                  : UTF-8 Plain Text
Duration                       : 53 min 1 s
Bit rate                       : 47 b/s
Count of elements              : 967
Stream size                    : 18.4 KiB (0%)
Title                          : 繁体中文
Default                        : No
Forced                         : No


标签:zone
分享快乐!
回复

使用道具 举报

 

精彩评论4

正序浏览
飞猪 发表于 2022-1-12 11:04 | 显示全部楼层
 
这部剧真不错,悬疑恐怖真的很好尤其第一章给9.9分,第二章给8分。不敢看恐怖片的还是别看了。
分享快乐!
回复

使用道具 举报

 
飞猪 发表于 2022-1-12 11:05 | 显示全部楼层
 
男演员演技全部在线。
分享快乐!
回复

使用道具 举报

 
您需要登录后才可以回帖 登录 | 立即注册

本版积分规则

0关注

18粉丝

869帖子

广告位
经典RPG武侠手游,安卓首发。
  • 版块推荐
  • 百宝箱
推荐阅读更多+
会员达人更多+
  • e2302

    主题:0 积分:11445
  • LCC

    主题:0 积分:9628
  • reese

    主题:0 积分:9091
广告位
经典RPG武侠手游,安卓首发。

信息推荐

更多+

最新信息

更多+

加入我们!分享快乐!

人人为我,我为人人!抵制吸血和收费分享行为!

从我做起!

只分享高品质影视资源

只求质量、不求数量、不抢首发!

Email:[email protected]

DHTCLUB - 高品质影视资源分享俱乐部