开启左侧

长津湖.The.Battle.At.Lake.Changjin.2021.2160p.WEB-DL.H265.DDP-DHTCLUB

[复制链接]
dhtclub 发表于 2022-1-1 23:04 | 显示全部楼层 |阅读模式 打印 上一主题 下一主题

长津湖The Battle at Lake Changjin(2021)4K 

简介电影以抗美援朝战争第二次战役中的长津湖战役为背景,讲述了一段波澜壮阔的历史:71年前,中国人民志愿军赴朝作战,在极寒严酷环境下,东线作战部队凭着钢铁意志和英勇无畏的战斗精神一路追击,奋勇杀敌,扭转了战场态势,打出了军威国威。
导演陈凯歌 / 徐克 / 林超贤
编剧兰晓龙 / 黄建新
类型剧情 战争 历史 
地区中国内地 中国香港 
语言普通话 
时长176分钟
资源大小19.7G
字幕语言内嵌简中 
豆瓣评分7.4
豆瓣链接https://movie.douban.com/subject/25845392/
IMDB评分4.9
IMDB链接https://www.imdb.com/title/tt13462900/
演员表

长津湖 的主要演员表……

吴京 / 易烊千玺 / 段奕宏 / 朱亚文 / 李晨 / 韩东君 / 胡军 / 张涵予 / 黄轩 / 欧豪 / 史彭元 / 李岷城 / 唐国强 / 杨一威 / 周小斌 / 林永健 / 王宁 / 刘劲 / 卢奇 / 王伍福 / 耿乐 / 曹阳 / 李军 / 王同辉 / 艾米 / 石昊正 / 许明虎
影片介绍

长津湖 的剧情介绍……

电影以抗美援朝战争第二次战役中的长津湖战役为背景,讲述了一段波澜壮阔的历史:71年前,中国人民志愿军赴朝作战,在极寒严酷环境下,东线作战部队凭着钢铁意志和英勇无畏的战斗精神一路追击,奋勇杀敌,扭转了战场态势,打出了军威国威。
资源下载
1080i/p下载地址 点击查看
4K下载地址 点击查看
《长津湖》下载帮助和注意事项:
1、本站所有资源均为磁力链资源,无需注册登录即可查看下载地址
2、使用迅雷或网盘离线是无法下载资源的!必须使用BT下载工具,如果没有下载速度请添加我们提供的tracker服务器列表
3、推荐BT下载工具:比特彗星qbittorrentutorrent 内网使用路由请做好端口映射或开启UPnP
4、不管选择哪种P2P下载工具,都希望你能在条件允许的前提下不要限速多做种分享上传一段时间
5、刻意限制P2P下载工具的上传速度(此行为俗称:吸血)将影响你的下载速度 防止被吸血和防止运营商过滤的教程
6、人人为我我为人人,只有大家不限制上传速度,大家才能共同获得更快的下载速度,这才是P2P应有的良性循环!
7、所有资源来源网络,本站服务器不存储任何种子文件,如侵犯您的权益,请联系 [email protected] 删除资源
点评&资源版本介绍

点评

海!外直播 abre.ai/snnn 禁闻视频 v.ht/k666 铁总负债破4万亿,看看这回扣,怎么盈利?一个色理石洗面台2.6万元,一个感应水阀1.28万元,一个卫生间纸巾盒1125元,上万元的15英寸液晶显示器,2.2万元一张的单人座椅,6   发表于 2022-9-20 11:57
 
长津湖 大海战2 舰队使命 硬核RTS海战游戏-画面党手残党勿入.mkv.jpg

General
Unique ID                      : 325323688937258731565827989607236886906 (0xF4BF103BEB0C4F79D11A238FBDA5E17A)
Format                         : Matroska
Format version                 : Version 4
File size                      : 19.6 GiB
Duration                       : 2 h 57 min
Overall bit rate               : 15.8 Mb/s
Encoded date                   : UTC 2022-01-01 02:53:31
Writing application            : mkvmerge v64.0.0 ('Willows') 64-bit
Writing library                : libebml v1.4.2 + libmatroska v1.6.4

Video
ID                             : 1
Format                         : HEVC
Format/Info                    : High Efficiency Video Coding
Format profile                 : [email protected]@Main
Codec ID                       : V_MPEGH/ISO/HEVC
Duration                       : 2 h 57 min
Bit rate                       : 15.5 Mb/s
Width                          : 3 840 pixels
Height                         : 1 624 pixels
Display aspect ratio           : 2.35:1
Frame rate mode                : Constant
Frame rate                     : 24.000 FPS
Color space                    : YUV
Chroma subsampling             : 4:2:0
Bit depth                      : 8 bits
Bits/(Pixel*Frame)             : 0.103
Stream size                    : 19.2 GiB (98%)
Default                        : Yes
Forced                         : No

Audio #1
ID                             : 2
Format                         : E-AC-3
Format/Info                    : Enhanced AC-3
Commercial name                : Dolby Digital Plus
Codec ID                       : A_EAC3
Duration                       : 2 h 57 min
Bit rate mode                  : Constant
Bit rate                       : 96.0 kb/s
Channel(s)                     : 2 channels
Channel layout                 : L R
Sampling rate                  : 48.0 kHz
Frame rate                     : 31.250 FPS (1536 SPF)
Compression mode               : Lossy
Stream size                    : 122 MiB (1%)
Service kind                   : Complete Main
Default                        : Yes
Forced                         : No

Audio #2
ID                             : 3
Format                         : AAC LC
Format/Info                    : Advanced Audio Codec Low Complexity
Codec ID                       : A_AAC-2
Duration                       : 2 h 57 min
Bit rate                       : 192 kb/s
Channel(s)                     : 2 channels
Channel layout                 : L R
Sampling rate                  : 44.1 kHz
Frame rate                     : 43.066 FPS (1024 SPF)
Compression mode               : Lossy
Stream size                    : 241 MiB (1%)
Default                        : No
Forced                         : No


分享快乐!
回复

使用道具 举报

 

精彩评论7

正序浏览
山上石 发表于 2022-1-3 16:47 | 显示全部楼层
 
4K的下了很久,没什么资源。
分享快乐!
回复

使用道具 举报

 
xiaohu107 发表于 2022-1-4 12:56 | 显示全部楼层
 
下载的地址在哪呢?有谁知道?
分享快乐!
回复

使用道具 举报

 
山上石 发表于 2022-1-4 21:42 | 显示全部楼层
 
好几天了还是没速度。
分享快乐!
回复

使用道具 举报

 
csf 发表于 2022-1-12 19:21 | 显示全部楼层
 
终于有了啊,谢谢分享!
分享快乐!
回复

使用道具 举报

 
zuinsung 发表于 2022-1-12 22:40 | 显示全部楼层
 
感谢分享!
回复

使用道具 举报

 
您需要登录后才可以回帖 登录 | 立即注册

本版积分规则

0关注

18粉丝

869帖子

广告位
经典RPG武侠手游,安卓首发。
  • 版块推荐
  • 百宝箱
推荐阅读更多+
会员达人更多+
  • e2302

    主题:0 积分:11445
  • LCC

    主题:0 积分:9628
  • reese

    主题:0 积分:9091
广告位
经典RPG武侠手游,安卓首发。

信息推荐

更多+

最新信息

更多+

加入我们!分享快乐!

人人为我,我为人人!抵制吸血和收费分享行为!

从我做起!

只分享高品质影视资源

只求质量、不求数量、不抢首发!

Email:[email protected]

DHTCLUB - 高品质影视资源分享俱乐部