开启左侧

我和我的父辈.My.Country.My.Parents.2021.1080p.WEB-DL.AAC.H264-DHTCLUB

[复制链接]
dhtclub 发表于 2022-1-26 20:30 | 显示全部楼层 |阅读模式 打印 上一主题 下一主题

我和我的父辈My Country My Parents(2021)1080P 

简介继2019年《我和我的祖国》、2020年《我和我的家乡》,国庆三部曲之《我和我的父辈》接棒定档2021年国庆。由吴京、章子怡、徐峥、沈腾导演,“中国电影追梦人”再次集结,以革命、建设、改革开放和新时代为历史坐标, 通过“家与国”的视角描写几代父辈的奋斗经历,讲述中国人的血脉相连和精神传承,再现中国人努力拼搏的时代记忆。
导演吴京 / 章子怡 / 徐峥 / 沈腾
编剧俞白眉 / 张彦 / 李媛 / 何可可 / 徐峥 / 华玮琳 / 林炳宝
类型剧情 
地区中国内地 
语言普通话 
时长157分钟
资源大小8G
字幕语言内嵌简中英双语 
豆瓣评分6.7
豆瓣链接https://movie.douban.com/subject/35294995/
IMDB评分无分
IMDB链接
演员表

我和我的父辈 的主要演员表……

吴京 / 章子怡 / 徐峥 / 沈腾 / 吴磊 / 黄轩 / 袁近辉 / 任思诺 / 韩昊霖 / 宋佳 / 马丽 / 洪烈 / 张天爱 / 李光洁 / 海清 / 陈道明 / 彭昱畅 / 欧豪 / 贾冰 / 辣目洋子 / 艾伦 / 常远 / 余皑磊 / 魏晨 / 陶虹 / 倪虹洁 / 张雨绮 / 焦圣祥 / 樊雨洁 / 张建亚 / 张芝华 / 张国强 / 宁理 / 胡可 / 沙溢 / 马书良 / 曹可凡 / 万茜 / 祖峰 / 张艺谋 / 李雪健 / 张小斐 / 杜江 / 李乃文 / 耿乐 / 吴昊宸 / 白那日苏 / 江水 / 逯长恩 / 张恒瑞 / 阿楠 / 吴昱翰 / 周庆昀 / 王成思 / 宋阳 / 李海银 / 龚毅星
影片介绍

我和我的父辈 的剧情介绍……

继2019年《我和我的祖国》、2020年《我和我的家乡》,国庆三部曲之《我和我的父辈》接棒定档2021年国庆。由吴京、章子怡、徐峥、沈腾导演,“中国电影追梦人”再次集结,以革命、建设、改革开放和新时代为历史坐标, 通过“家与国”的视角描写几代父辈的奋斗经历,讲述中国人的血脉相连和精神传承,再现中国人努力拼搏的时代记忆。
资源下载
1080i/p下载地址 点击查看
4K下载地址 点击查看
《我和我的父辈》下载帮助和注意事项:
1、本站所有资源均为磁力链资源,无需注册登录即可查看下载地址
2、使用迅雷或网盘离线是无法下载资源的!必须使用BT下载工具,如果没有下载速度请添加我们提供的tracker服务器列表
3、推荐BT下载工具:比特彗星qbittorrentutorrent 内网使用路由请做好端口映射或开启UPnP
4、不管选择哪种P2P下载工具,都希望你能在条件允许的前提下不要限速多做种分享上传一段时间
5、刻意限制P2P下载工具的上传速度(此行为俗称:吸血)将影响你的下载速度 防止被吸血和防止运营商过滤的教程
6、人人为我我为人人,只有大家不限制上传速度,大家才能共同获得更快的下载速度,这才是P2P应有的良性循环!
7、所有资源来源网络,本站服务器不存储任何种子文件,如侵犯您的权益,请联系 [email protected] 删除资源
点评&资源版本介绍

点评

海!外直播 abre.ai/3ttt 禁闻视频 v.ht/uuuuuuuu 从大米里,认识了镉;从咸鸭蛋里,认识了苏丹红;从火锅里,认识了福尔马林;从银耳里,认识了硫磺;从牛奶里认识了三聚氰胺..在食品中我们国家顺利完成了化学扫盲...  发表于 2022-9-20 11:58
 
我和我的父辈 大海战2 舰队使命 硬核RTS海战游戏-画面党手残党勿入.mp4.jpg
General
Format                         : MPEG-4
Format profile                 : Base Media
Codec ID                       : isom (isom/iso2/avc1/mp41)
File size                      : 7.86 GiB
Duration                       : 2 h 37 min
Overall bit rate mode          : Variable
Overall bit rate               : 7 134 kb/s
Writing application            : OurTV Multimedia Platform

Video
ID                             : 1
Format                         : AVC
Format/Info                    : Advanced Video Codec
Format profile                 : [email protected]
Format settings                : CABAC / 3 Ref Frames
Format settings, CABAC         : Yes
Format settings, Reference fra : 3 frames
Format settings, GOP           : M=3, N=50
Codec ID                       : avc1
Codec ID/Info                  : Advanced Video Coding
Duration                       : 2 h 37 min
Source duration                : 2 h 37 min
Bit rate mode                  : Constant
Bit rate                       : 7 001 kb/s
Width                          : 1 920 pixels
Height                         : 1 080 pixels
Display aspect ratio           : 16:9
Frame rate mode                : Constant
Frame rate                     : 25.000 FPS
Color space                    : YUV
Chroma subsampling             : 4:2:0
Bit depth                      : 8 bits
Scan type                      : Progressive
Bits/(Pixel*Frame)             : 0.135
Stream size                    : 7.40 GiB (94%)
Source stream size             : 7.71 GiB (98%)
Color range                    : Limited
Color primaries                : BT.709
Transfer characteristics       : BT.709
Matrix coefficients            : BT.709
mdhd_Duration                  : 9461643
Codec configuration box        : avcC

Audio
ID                             : 2
Format                         : AAC LC
Format/Info                    : Advanced Audio Codec Low Complexity
Codec ID                       : mp4a-40-2
Duration                       : 2 h 37 min
Bit rate mode                  : Variable
Bit rate                       : 125 kb/s
Maximum bit rate               : 129 kb/s / 129 kb/s
Channel(s)                     : 2 channels
Channel layout                 : L R
Sampling rate                  : 48.0 kHz
Frame rate                     : 46.875 FPS (1024 SPF)
Compression mode               : Lossy
Stream size                    : 141 MiB (2%)
Default                        : Yes
Alternate group                : 1


分享快乐!
回复

使用道具 举报

 

精彩评论8

正序浏览
54120 发表于 2022-1-30 15:08 | 显示全部楼层
 
我下载提示地址无效,求老师帮助,谢谢。
分享快乐!
回复

使用道具 举报

 
dhtclub 发表于 2022-1-30 16:26 | 显示全部楼层
 
54120 发表于 2022-1-30 15:08
我下载提示地址无效,求老师帮助,谢谢。

请仔细看 下載幫助和注意事項
按要求使用下载工具。
分享快乐!
回复

使用道具 举报

 
 楼主| FFF123456 发表于 2022-2-1 13:07 | 显示全部楼层
 
54120 发表于 2022-1-30 15:08
我下载提示地址无效,求老师帮助,谢谢。

把第二个tx换成dn就可以了
分享快乐!
回复

使用道具 举报

 
FFF123456 发表于 2022-2-1 13:08 | 显示全部楼层
 
把第二个tx换成dn就可以了
分享快乐!
回复

使用道具 举报

 
huminju 发表于 2022-4-3 16:14 | 显示全部楼层
 
感谢分享!
分享快乐!
回复

使用道具 举报

 
qiutie 发表于 2022-4-20 18:33 | 显示全部楼层
 
感谢分享!一直想看
分享快乐!
回复

使用道具 举报

 
您需要登录后才可以回帖 登录 | 立即注册

本版积分规则

0关注

18粉丝

869帖子

广告位
经典RPG武侠手游,安卓首发。
  • 版块推荐
  • 百宝箱
推荐阅读更多+
会员达人更多+
  • e2302

    主题:0 积分:11445
  • LCC

    主题:0 积分:9628
  • reese

    主题:0 积分:9091
广告位
经典RPG武侠手游,安卓首发。

信息推荐

更多+

最新信息

更多+

加入我们!分享快乐!

人人为我,我为人人!抵制吸血和收费分享行为!

从我做起!

只分享高品质影视资源

只求质量、不求数量、不抢首发!

Email:[email protected]

DHTCLUB - 高品质影视资源分享俱乐部