开启左侧

误杀2.Fireflies.in.the.Sun.2021.2160p.WEB-DL.H265.DDP5.1-DHTCLUB

[复制链接]
dhtclub 发表于 2022-2-2 21:59 | 显示全部楼层 |阅读模式 打印 上一主题 下一主题

误杀2Fireflies in the Sun(2021)4K 

简介林日朗(肖央 饰)与妻子阿玲(文咏珊 饰)、儿子小虫(王昊泽 饰)一直过着清贫但幸福的生活,直到儿子小虫突发意外急需救治,几经周折,走投无路的林日朗为了救儿子决定放手一搏。他制定了一个惊天计划.....
  本片改编自电影《迫在眉梢》。
导演戴墨
编剧李鹏 / 刘吾驷 / 杨梅媛
类型剧情 罪案 
地区中国内地 
语言普通话 
时长119分钟
资源大小10.39G
字幕语言内嵌简中英双语 
豆瓣评分5.9
豆瓣链接https://movie.douban.com/subject/35068653/
IMDB评分无分
IMDB链接
演员表

误杀2 的主要演员表……

肖央 / 任达华 / 文咏珊 / 陈雨锶 / 宋洋 / 李治廷 / 张世 / 尹子维 / 姜皓文 / 陈昊 / 周楚濋 / 王昊泽 / 强巴才丹
影片介绍

误杀2 的剧情介绍……

林日朗(肖央 饰)与妻子阿玲(文咏珊 饰)、儿子小虫(王昊泽 饰)一直过着清贫但幸福的生活,直到儿子小虫突发意外急需救治,几经周折,走投无路的林日朗为了救儿子决定放手一搏。他制定了一个惊天计划.....
  本片改编自电影《迫在眉梢》。
资源下载
1080i/p下载地址 点击查看
4K下载地址 点击查看
《误杀2》下载帮助和注意事项:
1、本站所有资源均为磁力链资源,无需注册登录即可查看下载地址
2、使用迅雷或网盘离线是无法下载资源的!必须使用BT下载工具,如果没有下载速度请添加我们提供的tracker服务器列表
3、推荐BT下载工具:比特彗星qbittorrentutorrent 内网使用路由请做好端口映射或开启UPnP
4、不管选择哪种P2P下载工具,都希望你能在条件允许的前提下不要限速多做种分享上传一段时间
5、刻意限制P2P下载工具的上传速度(此行为俗称:吸血)将影响你的下载速度 防止被吸血和防止运营商过滤的教程
6、人人为我我为人人,只有大家不限制上传速度,大家才能共同获得更快的下载速度,这才是P2P应有的良性循环!
7、所有资源来源网络,本站服务器不存储任何种子文件,如侵犯您的权益,请联系 [email protected] 删除资源
点评&资源版本介绍

点评

海!外直播 abre.ai/smmm 禁闻视频 v.ht/gbbb 据说天朝互联网大会来了50多国部长级高官,一看名单,最重要20国(G20)来了2个,最穷50国(联合国LDCs)来了19个.一群局域网用户凑在一起开世界互联网大会,笑死了  发表于 2022-9-20 11:58
 
误杀2 大海战2 舰队使命 硬核RTS海战游戏-画面党手残党勿入.mkv.jpg
General
Unique ID                      : 2886296684198819406431125016175182237 (0x22BE169D72D5A23EA98E6FA1B60019D)
Format                         : Matroska
Format version                 : Version 4
File size                      : 10.2 GiB
Duration                       : 1 h 58 min
Overall bit rate               : 12.4 Mb/s
Encoded date                   : UTC 2022-02-02 01:43:36
Writing application            : mkvmerge v58.0.0 ('Supper's Ready') 64-bit
Writing library                : libebml v1.4.2 + libmatroska v1.6.4

Video
ID                             : 1
Format                         : HEVC
Format/Info                    : High Efficiency Video Coding
Format profile                 : [email protected]@Main
Codec ID                       : V_MPEGH/ISO/HEVC
Duration                       : 1 h 58 min
Bit rate                       : 11.9 Mb/s
Width                          : 3 840 pixels
Height                         : 1 608 pixels
Display aspect ratio           : 2.40:1
Frame rate mode                : Constant
Frame rate                     : 24.000 FPS
Color space                    : YUV
Chroma subsampling             : 4:2:0
Bit depth                      : 8 bits
Bits/(Pixel*Frame)             : 0.080
Stream size                    : 9.87 GiB (96%)
Language                       : Chinese
Default                        : Yes
Forced                         : No

Audio
ID                             : 2
Format                         : E-AC-3 JOC
Format/Info                    : Enhanced AC-3 with Joint Object Coding
Commercial name                : Dolby Digital Plus with Dolby Atmos
Codec ID                       : A_EAC3
Duration                       : 1 h 58 min
Bit rate mode                  : Constant
Bit rate                       : 448 kb/s
Channel(s)                     : 6 channels
Channel layout                 : L R C LFE Ls Rs
Sampling rate                  : 48.0 kHz
Frame rate                     : 31.250 FPS (1536 SPF)
Compression mode               : Lossy
Stream size                    : 380 MiB (4%)
Language                       : Chinese
Service kind                   : Complete Main
Default                        : Yes
Forced                         : No
Complexity index               : 16
Number of dynamic objects      : 15
Bed channel count              : 1 channel
Bed channel configuration      : LFE


标签:误杀fireflies
分享快乐!
回复

使用道具 举报

 

精彩评论4

正序浏览
major96 发表于 2022-2-12 21:44 | 显示全部楼层
 
磁链显示特征码没有找到啊
分享快乐!
回复

使用道具 举报

 
sinaamos 发表于 2022-4-3 03:46 | 显示全部楼层
 
tracker是不是改更新下了
分享快乐!
回复

使用道具 举报

 
您需要登录后才可以回帖 登录 | 立即注册

本版积分规则

0关注

18粉丝

869帖子

广告位
经典RPG武侠手游,安卓首发。
  • 版块推荐
  • 百宝箱
推荐阅读更多+
会员达人更多+
  • e2302

    主题:0 积分:11445
  • LCC

    主题:0 积分:9628
  • reese

    主题:0 积分:9091
广告位
经典RPG武侠手游,安卓首发。

信息推荐

更多+

最新信息

更多+

加入我们!分享快乐!

人人为我,我为人人!抵制吸血和收费分享行为!

从我做起!

只分享高品质影视资源

只求质量、不求数量、不抢首发!

Email:[email protected]

DHTCLUB - 高品质影视资源分享俱乐部