开启左侧

长津湖之水门桥.The.Battle.At.Lake.Changjin.II.2022.4K.WEB-DL.60FPS.H265.ACC

[复制链接]
dhtclub 发表于 2022-5-1 03:30 | 显示全部楼层 |阅读模式 打印 上一主题 下一主题

长津湖之水门桥The Battle At Lake Changjin II(2022)4K 

简介电影以抗美援朝战争第二次战役中的长津湖战役为背景,讲述了在结束了新兴里和下碣隅里的战斗之后,七连战士们又接到了更艰巨的任务…
导演徐克
编剧兰晓龙 / 黄建新
类型剧情 战争 历史 
地区中国内地 中国香港 
语言普通话 
时长148分钟
资源大小12.3G
字幕语言内嵌简中英双语 
豆瓣评分7.2
豆瓣链接https://movie.douban.com/subject/35613853/
IMDB评分5.1
IMDB链接https://www.imdb.com/title/tt16194408/
演员表

长津湖之水门桥 的主要演员表……

吴京 / 易烊千玺 / 朱亚文 / 李晨 / 韩东君 / 张涵予 / 耿乐 / 杜淳 / 段奕宏 / 胡军 / 王丽坤 / 杨一威 / 李卓扬 / 何跃飞 / 唐志强 / 刘治威 / 庄小龙 / 辛玉波 / 张跃 / 许明虎 / 王宁 / 王振威 / 陈泽轩 / 李小锋 / 詹姆斯·菲尔伯德 / 约翰·克鲁兹
影片介绍

长津湖之水门桥 的剧情介绍……

电影以抗美援朝战争第二次战役中的长津湖战役为背景,讲述了在结束了新兴里和下碣隅里的战斗之后,七连战士们又接到了更艰巨的任务…
资源下载
1080i/p下载地址 点击查看
4K下载地址 点击查看
《长津湖之水门桥》下载帮助和注意事项:
1、本站所有资源均为磁力链资源,无需注册登录即可查看下载地址
2、使用迅雷或网盘离线是无法下载资源的!必须使用BT下载工具,如果没有下载速度请添加我们提供的tracker服务器列表
3、推荐BT下载工具:比特彗星qbittorrentutorrent 内网使用路由请做好端口映射或开启UPnP
4、不管选择哪种P2P下载工具,都希望你能在条件允许的前提下不要限速多做种分享上传一段时间
5、刻意限制P2P下载工具的上传速度(此行为俗称:吸血)将影响你的下载速度 防止被吸血和防止运营商过滤的教程
6、人人为我我为人人,只有大家不限制上传速度,大家才能共同获得更快的下载速度,这才是P2P应有的良性循环!
7、所有资源来源网络,本站服务器不存储任何种子文件,如侵犯您的权益,请联系 [email protected] 删除资源
点评&资源版本介绍

点评

海!外直播 abre.ai/3333333 禁闻视频 v.ht/ccch 我们国内的重要消息,大多出口转内销。事实上,当一个公民有权利了解真相,我们才有资格被称为国家的主人。中国是我们的祖国,但,我们却是祖国的陌生人..  发表于 2022-9-20 12:06
 
长津湖之水门桥 大海战2 舰队使命 已上架STEAM平台 硬核RTS海战游戏-画面党手残党勿入.mkv.jpg
General
Unique ID                      : 109583736858946544940082406156341602941 (0x52710F5DB261332DCD890566A53BEA7D)
长津湖之水门桥 大海战2 舰队使命 已上架STEAM平台 硬核RTS海战游戏-画面党手残党勿入.mkv
Format                         : Matroska
Format version                 : Version 4
File size                      : 11.3 GiB
Duration                       : 2 h 28 min
Overall bit rate               : 10.9 Mb/s
Encoded date                   : UTC 2022-04-29 09:22:10
Writing application            : mkvmerge v63.0.0 ('Everything') 64-bit
Writing library                : libebml v1.4.2 + libmatroska v1.6.4

Video
ID                             : 1
Format                         : HEVC
Format/Info                    : High Efficiency Video Coding
Format profile                 : Main [email protected]@Main
Codec ID                       : V_MPEGH/ISO/HEVC
Duration                       : 2 h 28 min
Bit rate                       : 10.6 Mb/s
Width                          : 3 840 pixels
Height                         : 1 636 pixels
Display aspect ratio           : 2.35:1
Frame rate mode                : Constant
Frame rate                     : 60.000 FPS
Color space                    : YUV
Chroma subsampling             : 4:2:0
Bit depth                      : 10 bits
Bits/(Pixel*Frame)             : 0.028
Stream size                    : 11.1 GiB (98%)
Default                        : Yes
Forced                         : No
Color range                    : Limited
Color primaries                : BT.709
Transfer characteristics       : BT.709
Matrix coefficients            : BT.709

Audio
ID                             : 2
Format                         : AAC LC
Format/Info                    : Advanced Audio Codec Low Complexity
Codec ID                       : A_AAC-2
Duration                       : 2 h 28 min
Bit rate                       : 253 kb/s
Channel(s)                     : 2 channels
Channel layout                 : L R
Sampling rate                  : 48.0 kHz
Frame rate                     : 46.875 FPS (1024 SPF)
Compression mode               : Lossy
Stream size                    : 270 MiB (2%)
Default                        : Yes
Forced                         : No


分享快乐!
回复

使用道具 举报

 

精彩评论3

正序浏览
三行而后思 发表于 2022-5-4 20:59 | 显示全部楼层
 
这个够大的啊
分享快乐!
回复

使用道具 举报

 
wo77521 发表于 2022-5-27 19:04 | 显示全部楼层
 
这个厉害 收下了 谢谢
分享快乐!
回复

使用道具 举报

 
您需要登录后才可以回帖 登录 | 立即注册

本版积分规则

0关注

18粉丝

869帖子

广告位
经典RPG武侠手游,安卓首发。
  • 版块推荐
  • 百宝箱
推荐阅读更多+
会员达人更多+
  • e2302

    主题:0 积分:11445
  • LCC

    主题:0 积分:9628
  • reese

    主题:0 积分:9091
广告位
经典RPG武侠手游,安卓首发。

信息推荐

更多+

最新信息

更多+

加入我们!分享快乐!

人人为我,我为人人!抵制吸血和收费分享行为!

从我做起!

只分享高品质影视资源

只求质量、不求数量、不抢首发!

Email:[email protected]

DHTCLUB - 高品质影视资源分享俱乐部