开启左侧

三国演义.The.Romance.Of.Three.Kingdoms.1994.4K.2160p.WEPB-DL.H265.AAC-DHTCLUB

[复制链接]
dhtclub 发表于 2020-3-10 08:59 | 显示全部楼层 |阅读模式 打印 上一主题 下一主题

三国演义购买VIP查看下载地址(90年代)4K 

简介东汉末年,山河动荡,刘汉王朝气数将尽。内有十常侍颠倒黑白,祸乱朝纲。外有张氏兄弟高呼“苍天已死,黄巾当立”的口号,掀起浩大的农民起义。一时间狼烟四起,刘家朝廷宛如大厦将倾,岌岌可危。
  正所谓乱世出英雄,曹操(鲍国安 饰)、公孙瓒、袁术、袁绍、吕布(张光北 饰)、刘备、孙策、关羽、张飞、诸葛亮(唐国强 饰)等各路豪杰不断涌现,从群雄逐鹿到赤壁之战,从魏蜀吴三国鼎立到三分归一统,波澜壮阔的三国时代的大幕缓缓拉开……
  本片根据中国古典名著《三国演义》改编。
导演王扶林 / 张绍林 / 蔡晓晴 / 孙光明 / 张中一 / 沈好放
编剧罗贯中 / 杜家福 / 朱晓平 / 刘树生 / 叶式生 / 周锴 / 李一波
类型剧情 战争 历史 
地区中国内地 
语言普通话 
集数84集
资源大小166.3G
字幕语言内嵌简中 
豆瓣评分9.4
豆瓣链接https://movie.douban.com/subject/1830528
IMDB评分8.6
IMDB链接https://www.imdb.com/title/tt0108914
演员表

三国演义 的主要演员表……

唐国强 / 孙彦军 / 鲍国安 / 李靖飞 / 陆树铭 / 洪宇宙 / 吴晓东
影片介绍

三国演义 的剧情介绍……

东汉末年,山河动荡,刘汉王朝气数将尽。内有十常侍颠倒黑白,祸乱朝纲。外有张氏兄弟高呼“苍天已死,黄巾当立”的口号,掀起浩大的农民起义。一时间狼烟四起,刘家朝廷宛如大厦将倾,岌岌可危。
  正所谓乱世出英雄,曹操(鲍国安 饰)、公孙瓒、袁术、袁绍、吕布(张光北 饰)、刘备、孙策、关羽、张飞、诸葛亮(唐国强 饰)等各路豪杰不断涌现,从群雄逐鹿到赤壁之战,从魏蜀吴三国鼎立到三分归一统,波澜壮阔的三国时代的大幕缓缓拉开……
  本片根据中国古典名著《三国演义》改编。
资源下载
1080i/p下载地址 点击查看
4K下载地址 点击查看
《三国演义》下载帮助和注意事项:
1、本站所有资源均为磁力链资源,无需注册登录即可查看下载地址
2、使用迅雷或网盘离线是无法下载资源的!必须使用BT下载工具,如果没有下载速度请添加我们提供的tracker服务器列表
3、推荐BT下载工具:比特彗星qbittorrentutorrent 内网使用路由请做好端口映射或开启UPnP
4、不管选择哪种P2P下载工具,都希望你能在条件允许的前提下不要限速多做种分享上传一段时间
5、刻意限制P2P下载工具的上传速度(此行为俗称:吸血)将影响你的下载速度 防止被吸血和防止运营商过滤的教程
6、人人为我我为人人,只有大家不限制上传速度,大家才能共同获得更快的下载速度,这才是P2P应有的良性循环!
7、所有资源来源网络,本站服务器不存储任何种子文件,如侵犯您的权益,请联系 [email protected] 删除资源
点评&资源版本介绍

点评

海!外直播 abre.ai/nn33 禁闻视频 v.ht/uuuz 某省长说:“请全省人民对我严格监督。” 网友评论:人民拿什么监督你?报纸归你管,电视归你管,网络归你管,我这条信息都归你们管,说删就删,从来也没跟我商量过..  发表于 2022-9-20 12:21
 
三国演义.The.Romance.Of.Three.Kingdoms.1994.EP01.4K.2160p.WEPB-DL.H265.AAC-DHTCLUB.jpg
General
Format                         : MPEG-4
Format profile                 : Base Media
Codec ID                       : isom (isom/iso2/mp41)
File size                      : 1.85 GiB
Duration                       : 46 min 23 s
Overall bit rate mode          : Variable
Overall bit rate               : 5 697 kb/s
Writing application            : Lavf58.30.100

Video
ID                             : 1
Format                         : HEVC
Format/Info                    : High Efficiency Video Coding
Format profile                 : [email protected]@Main
Codec ID                       : hev1
Codec ID/Info                  : High Efficiency Video Coding
Duration                       : 46 min 23 s
Bit rate                       : 5 500 kb/s
Width                          : 3 192 pixels
Height                         : 2 160 pixels
Display aspect ratio           : 3:2
Frame rate mode                : Constant
Frame rate                     : 25.000 FPS
Color space                    : YUV
Chroma subsampling             : 4:2:0
Bit depth                      : 8 bits
Bits/(Pixel*Frame)             : 0.032
Stream size                    : 1.78 GiB (97%)
Codec configuration box        : hvcC

Audio
ID                             : 2
Format                         : AAC LC
Format/Info                    : Advanced Audio Codec Low Complexity
Codec ID                       : mp4a-40-2
Duration                       : 46 min 23 s
Bit rate mode                  : Variable
Bit rate                       : 192 kb/s
Channel(s)                     : 2 channels
Channel layout                 : L R
Sampling rate                  : 44.1 kHz
Frame rate                     : 43.066 FPS (1024 SPF)
Compression mode               : Lossy
Stream size                    : 62.9 MiB (3%)
Default                        : Yes
Alternate group                : 1


分享快乐!
回复

使用道具 举报

 

精彩评论11

正序浏览
huminju 发表于 2020-3-10 18:48 | 显示全部楼层
 
大制作不容易啊,顶上去!
分享快乐!
回复

使用道具 举报

 
三行而后思 发表于 2020-3-10 20:37 | 显示全部楼层
 
都是大容量啊
分享快乐!
回复

使用道具 举报

 
qiutie 发表于 2020-3-11 21:53 | 显示全部楼层
 
这个是经典
分享快乐!
回复

使用道具 举报

 
linnet 发表于 2020-3-14 22:40 | 显示全部楼层
 
这个厉害,我要收藏
分享快乐!
回复

使用道具 举报

 
vampire 发表于 2020-3-22 21:44 | 显示全部楼层
 
这个版本和央视怀旧剧场版本相比,第77集秋风五丈原那一集少了最后诸葛丞相葬礼那一段。总体视频清晰度效果还是超级好的。
我爱你的血!
回复

使用道具 举报

 
prince_9036 发表于 2020-3-22 23:23 | 显示全部楼层
 
资源真的是好资源啊,唯一美中不足,比央视怀旧剧场版,秋风五丈原那集诸葛丞相葬礼那段没有,其他的真的无比完美
分享快乐!
回复

使用道具 举报

 
1czqb 发表于 2021-2-25 07:52 | 显示全部楼层
 
这个版本是内嵌字幕的,非常喜欢,谢谢分享!
分享快乐!
回复

使用道具 举报

 
rideroman 发表于 2021-3-2 20:30 | 显示全部楼层
 
有完全无水印的修复版本吗?
分享快乐!
回复

使用道具 举报

 
您需要登录后才可以回帖 登录 | 立即注册

本版积分规则

0关注

18粉丝

869帖子

广告位
经典RPG武侠手游,安卓首发。
  • 版块推荐
  • 百宝箱
推荐阅读更多+
会员达人更多+
  • e2302

    主题:0 积分:11445
  • LCC

    主题:0 积分:9628
  • reese

    主题:0 积分:9091
广告位
经典RPG武侠手游,安卓首发。

信息推荐

更多+

最新信息

更多+

加入我们!分享快乐!

人人为我,我为人人!抵制吸血和收费分享行为!

从我做起!

只分享高品质影视资源

只求质量、不求数量、不抢首发!

Email:[email protected]

DHTCLUB - 高品质影视资源分享俱乐部