开启左侧

西游记后传.Journey.to.the.West.Going.On.2000.4K.2160p.WEB-DL.HEVC.AAC-DHTCLUB

[复制链接]
dhtclub 发表于 2020-3-10 20:59 | 显示全部楼层 |阅读模式 打印 上一主题 下一主题

西游记后传购买VIP查看下载地址(2005~2000)4K 

简介唐僧师徒一行取到真经后,顺利的回到了长安,本是天地间为之欢喜之事。哪知三百年后,佛祖圆寂之时,天地突生异变。魔教教头无天(黑子 饰)突然降临到现场,占领要地灵山,自封为“无天佛祖”。且告知众妖:33年后,如来会借助转世灵童回归,集齐17颗舍利子,再次重返三界。而他们的目 标就是夺得这17颗舍利子,进而杀死转世灵童,称霸三界。
  唐僧(黄海冰 饰)被无天关进了冥界。知道了无天的野心后,唐僧利用紧箍咒,让在花果山的悟空(曹荣 饰)和八戒(闾汉彪 饰)意识到三界目前正面临着重大问题。而另一边,转世灵童乔灵儿(吴健 饰)正在一天天长大。一场恶斗即将来开序幕…
导演李源
编剧钱雁秋
类型动作 剧情 奇幻 
地区中国内地 
语言普通话 
集数30集
资源大小110G
字幕语言内嵌简中 
豆瓣评分7.7
豆瓣链接https://movie.douban.com/subject/2245679/
IMDB评分无分
IMDB链接
演员表

西游记后传 的主要演员表……

曹荣 / 闾汉彪 / 黄海冰 / 吴健 / 马杰林 / 李京 / 张志伟 / 黑子 / 马雅舒 / 涓子
影片介绍

西游记后传 的剧情介绍……

唐僧师徒一行取到真经后,顺利的回到了长安,本是天地间为之欢喜之事。哪知三百年后,佛祖圆寂之时,天地突生异变。魔教教头无天(黑子 饰)突然降临到现场,占领要地灵山,自封为“无天佛祖”。且告知众妖:33年后,如来会借助转世灵童回归,集齐17颗舍利子,再次重返三界。而他们的目 标就是夺得这17颗舍利子,进而杀死转世灵童,称霸三界。
  唐僧(黄海冰 饰)被无天关进了冥界。知道了无天的野心后,唐僧利用紧箍咒,让在花果山的悟空(曹荣 饰)和八戒(闾汉彪 饰)意识到三界目前正面临着重大问题。而另一边,转世灵童乔灵儿(吴健 饰)正在一天天长大。一场恶斗即将来开序幕…
资源下载
1080i/p下载地址 点击查看
4K下载地址 点击查看
《西游记后传》下载帮助和注意事项:
1、本站所有资源均为磁力链资源,无需注册登录即可查看下载地址
2、使用迅雷或网盘离线是无法下载资源的!必须使用BT下载工具,如果没有下载速度请添加我们提供的tracker服务器列表
3、推荐BT下载工具:比特彗星qbittorrentutorrent 内网使用路由请做好端口映射或开启UPnP
4、不管选择哪种P2P下载工具,都希望你能在条件允许的前提下不要限速多做种分享上传一段时间
5、刻意限制P2P下载工具的上传速度(此行为俗称:吸血)将影响你的下载速度 防止被吸血和防止运营商过滤的教程
6、人人为我我为人人,只有大家不限制上传速度,大家才能共同获得更快的下载速度,这才是P2P应有的良性循环!
7、所有资源来源网络,本站服务器不存储任何种子文件,如侵犯您的权益,请联系 [email protected] 删除资源
点评&资源版本介绍
 
西游记后传.Journey.to.the.West.Going.On.2000.EP01.4K.2160p.WEPB-DL.HEPVC.AAC-DHTCLUB.jpg
General
Format                         : MPEG-4
Format profile                 : Base Media
Codec ID                       : isom (isom/iso2/mp41)
File size                      : 1.35 GiB
Duration                       : 45 min 0 s
Overall bit rate mode          : Variable
Overall bit rate               : 4 292 kb/s
Writing application            : Lavf57.83.100

Video
ID                             : 1
Format                         : HEVC
Format/Info                    : High Efficiency Video Coding
Format profile                 : [email protected]@Main
Codec ID                       : hev1
Codec ID/Info                  : High Efficiency Video Coding
Duration                       : 45 min 0 s
Bit rate                       : 4 096 kb/s
Width                          : 3 032 pixels
Height                         : 2 160 pixels
Display aspect ratio           : 1.404
Frame rate mode                : Constant
Frame rate                     : 25.000 FPS
Color space                    : YUV
Chroma subsampling             : 4:2:0
Bit depth                      : 8 bits
Bits/(Pixel*Frame)             : 0.025
Stream size                    : 1.29 GiB (95%)
Color range                    : Limited
Color primaries                : BT.709
Transfer characteristics       : BT.709
Matrix coefficients            : BT.709
Codec configuration box        : hvcC

Audio
ID                             : 2
Format                         : AAC LC
Format/Info                    : Advanced Audio Codec Low Complexity
Codec ID                       : mp4a-40-2
Duration                       : 45 min 0 s
Bit rate mode                  : Variable
Bit rate                       : 192 kb/s
Maximum bit rate               : 235 kb/s
Channel(s)                     : 2 channels
Channel layout                 : L R
Sampling rate                  : 44.1 kHz
Frame rate                     : 43.066 FPS (1024 SPF)
Compression mode               : Lossy
Stream size                    : 61.0 MiB (4%)
Default                        : Yes
Alternate group                : 1


分享快乐!
回复

使用道具 举报

 

精彩评论37

正序浏览
huminju 发表于 2020-3-11 22:06 | 显示全部楼层
 
赞一个,多谢制作!
分享快乐!
回复

使用道具 举报

 
54thundersam 发表于 2020-3-12 08:02 | 显示全部楼层
 
我还是看前传吧
分享快乐!
回复

使用道具 举报

 
亦儒向东 发表于 2020-3-12 08:29 | 显示全部楼层
 
居然有4k 立刻洗版 是导演B站发的那个吗
分享快乐!
回复

使用道具 举报

 
哥胡哥 发表于 2020-3-13 06:48 | 显示全部楼层
 
赞一个,多谢制作
分享快乐!
回复

使用道具 举报

 
落花飞雪 发表于 2020-3-19 22:30 | 显示全部楼层
 
哇!!这神剧,竟然还真有,牛了
分享快乐!
回复

使用道具 举报

 
wsheng 发表于 2020-4-11 21:55 | 显示全部楼层
 
专门为了下载这个资源注册的账号,请问有谁下载完了吗?
分享快乐!
回复

使用道具 举报

 
wsheng 发表于 2020-4-11 22:19 | 显示全部楼层
 
本帖最后由 wsheng 于 2020-4-12 11:28 编辑

全网只有一个做种的,下载好慢啊,100kB/s左右,得下载十多天。快来人下载啊,他要是删掉就完蛋了
分享快乐!
回复

使用道具 举报

 
dhtclub 发表于 2020-4-12 11:50 | 显示全部楼层
 
wsheng 发表于 2020-4-11 22:19
全网只有一个做种的,下载好慢啊,100kB/s左右,得下载十多天。快来人下载啊,他要是删掉就完蛋了

DHTCLUB 发的资源都会持续做种,不可能删的,放心下。
分享快乐!
回复

使用道具 举报

 
 楼主| liujunjie 发表于 2020-4-14 11:49 | 显示全部楼层
 
支持神剧作品
分享快乐!
回复

使用道具 举报

 
您需要登录后才可以回帖 登录 | 立即注册

本版积分规则

0关注

11粉丝

837帖子

广告位
经典RPG武侠手游,安卓首发。
  • 版块推荐
  • 百宝箱
会员达人更多+
广告位
经典RPG武侠手游,安卓首发。

信息推荐

更多+

最新信息

更多+

加入我们!分享快乐!

人人为我,我为人人!抵制吸血和收费分享行为!

从我做起!

只分享高品质影视资源

只求质量、不求数量、不抢首发!

Email:[email protected]

DHTCLUB - 高品质影视资源分享俱乐部