开启左侧

哪吒之魔童降世.Ne.Zha.2019.UHD.BluRay.2160p.HEVC.DTS-HD.MA.5.1-DHTCLUB

[复制链接]
dhtclub 发表于 2020-3-14 01:34 | 显示全部楼层 |阅读模式 打印 上一主题 下一主题

哪吒之魔童降世购买VIP查看下载地址(2019)4K 

简介天地灵气孕育出一颗能量巨大的混元珠,元始天尊将混元珠提炼成灵珠和魔丸,灵珠投胎为人,助周伐纣时可堪大用;而魔丸则会诞出魔王,为祸人间。元始天尊启动了天劫咒语,3年后天雷将会降临,摧毁魔丸。太乙受命将灵珠托生于陈塘关李靖家的儿子哪吒身上。然而阴差阳错,灵珠和魔丸竟然被掉包。本应是灵珠英雄的哪吒却成了混世大魔王。调皮捣蛋顽劣不堪的哪吒却徒有一颗做英雄的心。然而面对众人对魔丸的误解和即将来临的天雷的降临,哪吒是否命中注定会立地成魔?他将何去何从?
导演饺子
编剧饺子 / 易巧 / 魏芸芸
类型喜剧 剧情 动画 奇幻 
地区中国内地 
语言普通话 
集数1集
资源大小48G
字幕语言内嵌简中 
豆瓣评分8.5
豆瓣链接https://movie.douban.com/subject/26794435/
IMDB评分升级VIP查看密码
IMDB链接https://www.imdb.com/title/tt10627720
演员表

哪吒之魔童降世 的主要演员表……

吕艳婷 / 囧森瑟夫 / 瀚墨 / 陈浩 / 绿绮 / 张珈铭 / 杨卫
影片介绍

哪吒之魔童降世 的剧情介绍……

天地灵气孕育出一颗能量巨大的混元珠,元始天尊将混元珠提炼成灵珠和魔丸,灵珠投胎为人,助周伐纣时可堪大用;而魔丸则会诞出魔王,为祸人间。元始天尊启动了天劫咒语,3年后天雷将会降临,摧毁魔丸。太乙受命将灵珠托生于陈塘关李靖家的儿子哪吒身上。然而阴差阳错,灵珠和魔丸竟然被掉包。本应是灵珠英雄的哪吒却成了混世大魔王。调皮捣蛋顽劣不堪的哪吒却徒有一颗做英雄的心。然而面对众人对魔丸的误解和即将来临的天雷的降临,哪吒是否命中注定会立地成魔?他将何去何从?
资源下载
1080i/p下载地址 点击查看
4K下载地址 点击查看
《哪吒之魔童降世》下载帮助和注意事项:
1、本站所有资源均为磁力链资源,无需注册登录即可查看下载地址
2、使用迅雷或网盘离线是无法下载资源的!必须使用BT下载工具,如果没有下载速度请添加我们提供的tracker服务器列表
3、推荐BT下载工具:比特彗星qbittorrentutorrent 内网使用路由请做好端口映射或开启UPnP
4、不管选择哪种P2P下载工具,都希望你能在条件允许的前提下不要限速多做种分享上传一段时间
5、刻意限制P2P下载工具的上传速度(此行为俗称:吸血)将影响你的下载速度 防止被吸血和防止运营商过滤的教程
6、人人为我我为人人,只有大家不限制上传速度,大家才能共同获得更快的下载速度,这才是P2P应有的良性循环!
7、所有资源来源网络,本站服务器不存储任何种子文件,如侵犯您的权益,请联系 [email protected] 删除资源
点评&资源版本介绍
 
哪吒之魔童降世.Ne.Zha.2019.UHD.BluRay.2160p.HEVC.DTS-HD.MA.5.1-DHTCLUB.jpg
General
Unique ID                      : 211395094901542372419672547118967412479 (0x9F0936DEC5E33CB77A750DB5F7EFD6FF)
Format                         : Matroska
Format version                 : Version 4
File size                      : 47.9 GiB
Duration                       : 1 h 50 min
Overall bit rate mode          : Variable
Overall bit rate               : 62.3 Mb/s
Encoded date                   : UTC 2020-03-12 10:07:08
Writing application            : mkvmerge v43.0.0 ('The Quartermaster') 64-bit
Writing library                : libebml v1.3.10 + libmatroska v1.5.2

Video
ID                             : 1
Format                         : HEVC
Format/Info                    : High Efficiency Video Coding
Format profile                 : Main [email protected]@High
HDR format                     : SMPTE ST 2086, HDR10 compatible
Codec ID                       : V_MPEGH/ISO/HEVC
Duration                       : 1 h 50 min
Bit rate                       : 59.8 Mb/s
Width                          : 3 840 pixels
Height                         : 2 160 pixels
Display aspect ratio           : 16:9
Frame rate mode                : Constant
Frame rate                     : 24.000 FPS
Color space                    : YUV
Chroma subsampling             : 4:2:0 (Type 2)
Bit depth                      : 10 bits
Bits/(Pixel*Frame)             : 0.300
Stream size                    : 46.0 GiB (96%)
Default                        : Yes
Forced                         : No
Color range                    : Limited
Color primaries                : BT.2020
Transfer characteristics       : PQ
Matrix coefficients            : BT.2020 non-constant
Mastering display color primar : BT.2020
Mastering display luminance    : min: 0.0001 cd/m2, max: 1000 cd/m2
Maximum Content Light Level    : 684 cd/m2
Maximum Frame-Average Light Le : 400 cd/m2

Audio
ID                             : 2
Format                         : DTS XLL
Format/Info                    : Digital Theater Systems
Commercial name                : DTS-HD Master Audio
Codec ID                       : A_DTS
Duration                       : 1 h 50 min
Bit rate mode                  : Variable
Bit rate                       : 2 455 kb/s
Channel(s)                     : 6 channels
Channel layout                 : C L R Ls Rs LFE
Sampling rate                  : 48.0 kHz
Frame rate                     : 93.750 FPS (512 SPF)
Bit depth                      : 16 bits
Compression mode               : Lossless
Stream size                    : 1.89 GiB (4%)
Language                       : Chinese
Default                        : Yes
Forced                         : No

Text
ID                             : 3
Format                         : PGS
Muxing mode                    : zlib
Codec ID                       : S_HDMV/PGS
Codec ID/Info                  : Picture based subtitle format used on BDs/HD-DVDs
Duration                       : 1 h 47 min
Bit rate                       : 25.9 kb/s
Count of elements              : 2416
Stream size                    : 20.0 MiB (0%)
Language                       : Chinese
Default                        : Yes
Forced                         : No


分享快乐!
回复

使用道具 举报

 

精彩评论1

正序浏览
xndjjzy 发表于 2020-3-20 09:08 | 显示全部楼层
 
第一次看两遍的国产动画,感谢分享!
分享快乐!
回复

使用道具 举报

 
您需要登录后才可以回帖 登录 | 立即注册

本版积分规则

0关注

11粉丝

838帖子

广告位
经典RPG武侠手游,安卓首发。
  • 版块推荐
  • 百宝箱
推荐阅读更多+
会员达人更多+
广告位
经典RPG武侠手游,安卓首发。

信息推荐

更多+

最新信息

更多+

加入我们!分享快乐!

人人为我,我为人人!抵制吸血和收费分享行为!

从我做起!

只分享高品质影视资源

只求质量、不求数量、不抢首发!

Email:[email protected]

DHTCLUB - 高品质影视资源分享俱乐部