开启左侧

还珠格格2.Princess.Pearl.II.1080P.H265.AAC-DHTCLUB

[复制链接]
dhtclub 发表于 2020-3-16 07:22 | 显示全部楼层 |阅读模式 打印 上一主题 下一主题

还珠格格2购买VIP查看下载地址(90年代)1080P 

简介因为宫中迎来美丽多情的回族公主香妃(刘丹),乾隆(张铁林)心情大好,然而他却没本事将这种好心情传递,并非自愿入宫的香妃一心惦念的只是之前的恋人。香妃的不幸遭遇引起小燕子(赵薇)的极大同情,在福尔康(周杰)、紫薇(林心如)等人的帮助下,小燕子想出妙计令香妃成功逃出宫,却因此为她和紫薇招致杀身之祸。
  萧剑(朱宏嘉)、柳青(陆诗雨)等人勇劫法场将小燕子与紫薇救出,与福尔康、永琪(苏有朋)等人作过会合后开始了集体大逃亡。而宫内,乾隆和皇后各怀心机,小燕子等人的命运变得扑朔迷离。
导演李平 / 孙树培
编剧琼瑶
类型动作 喜剧 爱情 剧情 古装 
地区中国内地 中国台湾 
语言普通话 
集数48集
资源大小51.2G
字幕语言内嵌繁中 
豆瓣评分7.8
豆瓣链接https://movie.douban.com/subject/1786740/
IMDB评分7.4
IMDB链接https://www.imdb.com/title/tt0456784/
演员表

还珠格格2 的主要演员表……

赵薇 / 苏有朋 / 张铁林 / 周杰 / 林心如 / 范冰冰 / 刘丹 / 牟凤彬 / 王艳 / 赵敏芬 / 戴春荣 / 赵丽娟 / 李明启 / 朱宏嘉 / 陆诗雨 / 陈莹 / 薛严 / 刘伟 / 鱼梦洁 / 李冰俏
影片介绍

还珠格格2 的剧情介绍……

因为宫中迎来美丽多情的回族公主香妃(刘丹),乾隆(张铁林)心情大好,然而他却没本事将这种好心情传递,并非自愿入宫的香妃一心惦念的只是之前的恋人。香妃的不幸遭遇引起小燕子(赵薇)的极大同情,在福尔康(周杰)、紫薇(林心如)等人的帮助下,小燕子想出妙计令香妃成功逃出宫,却因此为她和紫薇招致杀身之祸。
  萧剑(朱宏嘉)、柳青(陆诗雨)等人勇劫法场将小燕子与紫薇救出,与福尔康、永琪(苏有朋)等人作过会合后开始了集体大逃亡。而宫内,乾隆和皇后各怀心机,小燕子等人的命运变得扑朔迷离。
资源下载
1080i/p下载地址 点击查看
4K下载地址 点击查看
《还珠格格2》下载帮助和注意事项:
1、本站所有资源均为磁力链资源,无需注册登录即可查看下载地址
2、使用迅雷或网盘离线是无法下载资源的!必须使用BT下载工具,如果没有下载速度请添加我们提供的tracker服务器列表
3、推荐BT下载工具:比特彗星qbittorrentutorrent 内网使用路由请做好端口映射或开启UPnP
4、不管选择哪种P2P下载工具,都希望你能在条件允许的前提下不要限速多做种分享上传一段时间
5、刻意限制P2P下载工具的上传速度(此行为俗称:吸血)将影响你的下载速度 防止被吸血和防止运营商过滤的教程
6、人人为我我为人人,只有大家不限制上传速度,大家才能共同获得更快的下载速度,这才是P2P应有的良性循环!
7、所有资源来源网络,本站服务器不存储任何种子文件,如侵犯您的权益,请联系 [email protected] 删除资源
点评&资源版本介绍
 
还珠格格2.Princess.Pearl.II.E01.1080P.H265.AAC-DHTCLUB.jpg
General
Format                         : MPEG-4
Format profile                 : Base Media
Codec ID                       : isom (isom/iso2/avc1/mp41)
File size                      : 1.27 GiB
Duration                       : 48 min 13 s
Overall bit rate mode          : Variable
Overall bit rate               : 3 778 kb/s
Recorded date                  : 2019-10-11T13:52:48.4838404+08:00
Writing application            : Lavf58.32.104

Video
ID                             : 1
Format                         : AVC
Format/Info                    : Advanced Video Codec
Format profile                 : [email protected]
Format settings                : CABAC / 4 Ref Frames
Format settings, CABAC         : Yes
Format settings, Reference fra : 4 frames
Codec ID                       : avc1
Codec ID/Info                  : Advanced Video Coding
Duration                       : 48 min 13 s
Bit rate                       : 3 646 kb/s
Width                          : 1 462 pixels
Height                         : 1 080 pixels
Display aspect ratio           : 4:3
Frame rate mode                : Constant
Frame rate                     : 25.000 FPS
Color space                    : YUV
Chroma subsampling             : 4:2:0
Bit depth                      : 8 bits
Scan type                      : Progressive
Bits/(Pixel*Frame)             : 0.092
Stream size                    : 1.23 GiB (97%)
Codec configuration box        : avcC

Audio
ID                             : 2
Format                         : AAC LC
Format/Info                    : Advanced Audio Codec Low Complexity
Codec ID                       : mp4a-40-2
Duration                       : 48 min 13 s
Bit rate mode                  : Variable
Bit rate                       : 126 kb/s
Maximum bit rate               : 132 kb/s
Channel(s)                     : 2 channels
Channel layout                 : L R
Sampling rate                  : 44.1 kHz
Frame rate                     : 43.066 FPS (1024 SPF)
Compression mode               : Lossy
Stream size                    : 43.3 MiB (3%)
Default                        : Yes
Alternate group                : 1


分享快乐!
回复

使用道具 举报

 

精彩评论3

正序浏览
plyl 发表于 2020-3-22 18:45 | 显示全部楼层
 
清晰度不错。收藏了
分享快乐!
回复

使用道具 举报

 
WARREN 发表于 2020-3-24 06:59 | 显示全部楼层
 
支持了不错,期待全季发布
分享快乐!
回复

使用道具 举报

 
jakete868 发表于 2021-7-19 11:05 | 显示全部楼层
 
第二部没有第一部的轻松幽默,不过同样好看
分享快乐!
回复

使用道具 举报

 
您需要登录后才可以回帖 登录 | 立即注册

本版积分规则

0关注

11粉丝

838帖子

广告位
经典RPG武侠手游,安卓首发。
  • 版块推荐
  • 百宝箱
推荐阅读更多+
会员达人更多+
广告位
经典RPG武侠手游,安卓首发。

信息推荐

更多+

最新信息

更多+

加入我们!分享快乐!

人人为我,我为人人!抵制吸血和收费分享行为!

从我做起!

只分享高品质影视资源

只求质量、不求数量、不抢首发!

Email:[email protected]

DHTCLUB - 高品质影视资源分享俱乐部