开启左侧

汉武大帝.2006.DVDRip.1080P.H265.AC3.DHTCLUB

[复制链接]
dhtclub 发表于 2020-3-29 16:45 | 显示全部楼层 |阅读模式 打印 上一主题 下一主题

汉武大帝购买VIP查看下载地址(2005~2000)1080P 

简介平定了七国之乱,汉景帝(焦晃 饰)着手解决王国问题,削藩以加强中央集权。治国有方的汉景帝沿用了黄老的无为而治,然而刚刚稳定的西汉王朝面对强大的匈奴入侵,不得不忍辱负重,通过和亲来维持边境安全。景帝去世后,年少的汉武帝刘彻在其有心计的母后王氏的精心策划和拉拢众人下被推上皇 位。汉武帝一登基就展现出与以往君王不同的气魄和才智,广开言路,寻觅贤臣,实行改革。在其父文景之治奠定的基础下,汉武帝(陈宝国 饰)不断拓展着西汉的基业,在挫折和困难中展现着不断成长的帝王气魄,并且在皇后卫子夫(林静 饰)之弟卫青(陆剑民 饰)的帮助下对匈奴数十年讨伐赶出中原,一扫以往的民族耻辱。在刘彻的铁腕统治下,西汉达到了一个前所未有的盛世。
导演胡玫
编剧江奇涛
类型剧情 古装 历史 
地区中国内地 
语言普通话 
集数58集
资源大小144.9G
字幕语言无内嵌字幕 
豆瓣评分9.1
豆瓣链接https://movie.douban.com/subject/2411184/
IMDB评分8.3
IMDB链接https://www.imdb.com/title/tt4050958/
演员表

汉武大帝 的主要演员表……

陈宝国 / 焦晃 / 归亚蕾 / 陶虹 / 杨童舒 / 林静 / 沈保平 / 杜淳 / 宋晓英 / 马少骅 / 张世 / 苏小明 / 李乐
影片介绍

汉武大帝 的剧情介绍……

平定了七国之乱,汉景帝(焦晃 饰)着手解决王国问题,削藩以加强中央集权。治国有方的汉景帝沿用了黄老的无为而治,然而刚刚稳定的西汉王朝面对强大的匈奴入侵,不得不忍辱负重,通过和亲来维持边境安全。景帝去世后,年少的汉武帝刘彻在其有心计的母后王氏的精心策划和拉拢众人下被推上皇 位。汉武帝一登基就展现出与以往君王不同的气魄和才智,广开言路,寻觅贤臣,实行改革。在其父文景之治奠定的基础下,汉武帝(陈宝国 饰)不断拓展着西汉的基业,在挫折和困难中展现着不断成长的帝王气魄,并且在皇后卫子夫(林静 饰)之弟卫青(陆剑民 饰)的帮助下对匈奴数十年讨伐赶出中原,一扫以往的民族耻辱。在刘彻的铁腕统治下,西汉达到了一个前所未有的盛世。
资源下载
1080i/p下载地址 点击查看
4K下载地址 点击查看
《汉武大帝》下载帮助和注意事项:
1、本站所有资源均为磁力链资源,无需注册登录即可查看下载地址
2、使用迅雷或网盘离线是无法下载资源的!必须使用BT下载工具,如果没有下载速度请添加我们提供的tracker服务器列表
3、推荐BT下载工具:比特彗星qbittorrentutorrent 内网使用路由请做好端口映射或开启UPnP
4、不管选择哪种P2P下载工具,都希望你能在条件允许的前提下不要限速多做种分享上传一段时间
5、刻意限制P2P下载工具的上传速度(此行为俗称:吸血)将影响你的下载速度 防止被吸血和防止运营商过滤的教程
6、人人为我我为人人,只有大家不限制上传速度,大家才能共同获得更快的下载速度,这才是P2P应有的良性循环!
7、所有资源来源网络,本站服务器不存储任何种子文件,如侵犯您的权益,请联系 [email protected] 删除资源
点评&资源版本介绍
 
汉武大帝.2006.E01.DVDRip.1080P.H265.AC3.DHTCLUB.jpg
General
Unique ID                      : 121493016673416524415509309219741196783 (0x5B66B431C6BFE2A464C0CE03061D61EF)
Format                         : Matroska
Format version                 : Version 4
File size                      : 2.37 GiB
Duration                       : 39 min 41 s
Overall bit rate               : 8 562 kb/s
Writing application            : Lavf58.29.100
Writing library                : Lavf58.29.100
ErrorDetectionType             : Per level 1

Video
ID                             : 1
Format                         : HEVC
Format/Info                    : High Efficiency Video Coding
Format profile                 : [email protected]@Main
Codec ID                       : V_MPEGH/ISO/HEVC
Duration                       : 39 min 41 s
Bit rate                       : 7 944 kb/s
Width                          : 2 232 pixels
Height                         : 1 080 pixels
Display aspect ratio           : 2.063
Frame rate mode                : Constant
Frame rate                     : 29.970 (29970/1000) FPS
Color space                    : YUV
Chroma subsampling             : 4:2:0
Bit depth                      : 8 bits
Bits/(Pixel*Frame)             : 0.110
Stream size                    : 2.20 GiB (93%)
Writing library                : Lavc58.54.100 hevc_nvenc
Default                        : Yes
Forced                         : No

Audio
ID                             : 2
Format                         : AC-3
Format/Info                    : Audio Coding 3
Commercial name                : Dolby Digital
Codec ID                       : A_AC3
Duration                       : 39 min 41 s
Bit rate mode                  : Constant
Bit rate                       : 448 kb/s
Channel(s)                     : 6 channels
Channel layout                 : L R C LFE Ls Rs
Sampling rate                  : 48.0 kHz
Frame rate                     : 31.250 FPS (1536 SPF)
Bit depth                      : 16 bits
Compression mode               : Lossy
Stream size                    : 127 MiB (5%)
Service kind                   : Complete Main
Default                        : Yes
Forced                         : No


分享快乐!
回复

使用道具 举报

 

精彩评论7

正序浏览
z1hang 发表于 2020-3-29 17:39 | 显示全部楼层
 
8m的码率。这个怎么115离线,显示为0
分享快乐!
回复

使用道具 举报

 
dhtclub 发表于 2020-3-29 17:46 | 显示全部楼层
 
z1hang 发表于 2020-3-29 17:39
8m的码率。这个怎么115离线,显示为0

我们发布的资源都是屏蔽 迅雷、115、百度网盘这些吸血客户端的,请使用推荐的BT客户端下载。比特彗星、qbittorrent、utorrent ,如果你执意要用115这些,那就等一段时间,有其他热心网友上传115了,那自然你就能用115离线下载了。还请谅解,我们这里是遵循P2P分享原则的资源分享站。
分享快乐!
回复

使用道具 举报

 
 楼主| svipdht 发表于 2020-3-30 09:31 | 显示全部楼层
 
感谢分享,难得国产好片子
分享快乐!
回复

使用道具 举报

 
huminju 发表于 2020-3-31 22:21 | 显示全部楼层
 
这部剧很经典,当年看的我热血沸腾,今天有高清了,洗一下版,谢谢,辛苦了!
分享快乐!
回复

使用道具 举报

 
myyejin 发表于 2020-4-17 11:20 | 显示全部楼层
 
天呐!这部有1080的,太激动了!!
分享快乐!
回复

使用道具 举报

 
飞猪 发表于 2020-4-29 11:42 | 显示全部楼层
 
经典不容错过。
u=3108924015,2051819357&fm=26&gp=0.jpg u=1978566637,2425716878&fm=26&gp=0.jpg u=4161074661,1583698636&fm=26&gp=0.jpg u=4001867726,1917479267&fm=26&gp=0.jpg u=2332206512,126204679&fm=26&gp=0.jpg


分享快乐!
回复

使用道具 举报

 
vicent 发表于 2021-9-6 22:52 | 显示全部楼层
 
这个资源牛逼
分享快乐!
回复

使用道具 举报

 
您需要登录后才可以回帖 登录 | 立即注册

本版积分规则

0关注

14粉丝

856帖子

广告位
经典RPG武侠手游,安卓首发。
  • 版块推荐
  • 百宝箱
会员达人更多+
  • e2302

    主题:0 积分:11347
  • reese

    主题:0 积分:8396
  • powwow

    主题:0 积分:3294
广告位
经典RPG武侠手游,安卓首发。

信息推荐

更多+

最新信息

更多+

加入我们!分享快乐!

人人为我,我为人人!抵制吸血和收费分享行为!

从我做起!

只分享高品质影视资源

只求质量、不求数量、不抢首发!

Email:[email protected]

DHTCLUB - 高品质影视资源分享俱乐部