开启左侧

海绵宝宝.第一季.SpongeBob.SquarePants.Season.1.1999.1080p.AC3-DHTCLUB

[复制链接]
dhtclub 发表于 2020-3-30 17:54 | 显示全部楼层 |阅读模式 打印 上一主题 下一主题

海绵宝宝 第一季购买VIP查看下载地址(90年代)1080P 

简介海绵宝宝是一块穿着短裤衬衫打领带、暴牙大眼睛的黄色海绵,他生活在太平洋中央一片名为比基尼的海底之下。这里风和日丽,平静祥和,生活无忧无虑。海绵宝宝住在一个菠萝形状的房子里,与之为伴的是他的宠物小蜗(蜗牛)。开朗、纯真的海绵宝宝有许多好朋友,比如乐观单纯的派大星、性格古怪的章鱼哥、自私市侩的蟹老板还有力大无穷的松鼠珊蒂。平时他都在蟹老板的快餐店里打工,闲暇时就和好朋友们四处玩乐。这群性格各异的家伙们凑在一起,可真是闹出不少的笑话……
  本片为美国最受欢迎的电视系列动画之一,在2003~2009年期间,曾经7年当选美国儿童选择奖最受欢迎的动画片。
导演Alan Smart
编剧史蒂芬·海伦伯格 / 蒂姆·希尔 / Derek Drymon / Nick Jennings / Mr. Lawrence / Paul Tibbitt
类型喜剧 动画 奇幻 家庭 
地区美国 
语言普通话 英语 
集数20集
资源大小34.5G
字幕语言无内嵌字幕 
豆瓣评分9.5
豆瓣链接https://movie.douban.com/subject/1456579/
IMDB评分升级VIP查看密码
IMDB链接https://www.imdb.com/title/tt0206512
演员表

海绵宝宝 第一季 的主要演员表……

汤姆·肯尼 / Bill Fagerbakke / Rodger Bumpass / 克兰西·布朗 / 迪·布拉雷·贝克尔 / Mr. Lawrence / Sirena Irwin
影片介绍

海绵宝宝 第一季 的剧情介绍……

海绵宝宝是一块穿着短裤衬衫打领带、暴牙大眼睛的黄色海绵,他生活在太平洋中央一片名为比基尼的海底之下。这里风和日丽,平静祥和,生活无忧无虑。海绵宝宝住在一个菠萝形状的房子里,与之为伴的是他的宠物小蜗(蜗牛)。开朗、纯真的海绵宝宝有许多好朋友,比如乐观单纯的派大星、性格古怪的章鱼哥、自私市侩的蟹老板还有力大无穷的松鼠珊蒂。平时他都在蟹老板的快餐店里打工,闲暇时就和好朋友们四处玩乐。这群性格各异的家伙们凑在一起,可真是闹出不少的笑话……
  本片为美国最受欢迎的电视系列动画之一,在2003~2009年期间,曾经7年当选美国儿童选择奖最受欢迎的动画片。
资源下载
1080i/p下载地址 点击查看
4K下载地址 点击查看
《海绵宝宝 第一季》下载帮助和注意事项:
1、本站所有资源均为磁力链资源,无需注册登录即可查看下载地址
2、使用迅雷或网盘离线是无法下载资源的!必须使用BT下载工具,如果没有下载速度请添加我们提供的tracker服务器列表
3、推荐BT下载工具:比特彗星qbittorrentutorrent 内网使用路由请做好端口映射或开启UPnP
4、不管选择哪种P2P下载工具,都希望你能在条件允许的前提下不要限速多做种分享上传一段时间
5、刻意限制P2P下载工具的上传速度(此行为俗称:吸血)将影响你的下载速度 防止被吸血和防止运营商过滤的教程
6、人人为我我为人人,只有大家不限制上传速度,大家才能共同获得更快的下载速度,这才是P2P应有的良性循环!
7、所有资源来源网络,本站服务器不存储任何种子文件,如侵犯您的权益,请联系 [email protected] 删除资源
点评&资源版本介绍
 
海绵宝宝.第一季.SpongeBob.SquarePants.Season.1.1999.E01.1080p.AC3-DHTCLUB.jpg
General
Unique ID                      : 197962160811441435393396094635821740004 (0x94EE2016091918BD32CD729794FBAFE4)
Format                         : Matroska
Format version                 : Version 4
File size                      : 1.64 GiB
Duration                       : 23 min 49 s
Overall bit rate mode          : Variable
Overall bit rate               : 9 859 kb/s
Encoded date                   : UTC 2019-08-19 18:10:24
Writing application            : mkvmerge v36.0.0 ('Is That Jazz?') 64-bit
Writing library                : libebml v1.3.9 + libmatroska v1.5.2

Video
ID                             : 1
Format                         : AVC
Format/Info                    : Advanced Video Codec
Format profile                 : [email protected]
Format settings                : CABAC / 4 Ref Frames
Format settings, CABAC         : Yes
Format settings, Reference fra : 4 frames
Codec ID                       : V_MPEG4/ISO/AVC
Duration                       : 23 min 49 s
Bit rate mode                  : Variable
Bit rate                       : 9 408 kb/s
Maximum bit rate               : 15.0 Mb/s
Width                          : 1 920 pixels
Height                         : 1 080 pixels
Display aspect ratio           : 16:9
Frame rate mode                : Constant
Frame rate                     : 23.976 (24000/1001) FPS
Color space                    : YUV
Chroma subsampling             : 4:2:0
Bit depth                      : 8 bits
Scan type                      : Progressive
Bits/(Pixel*Frame)             : 0.189
Stream size                    : 1.57 GiB (95%)
Writing library                : x264 core 148 r2623 d5b2374
Encoding settings              : cabac=1 / ref=4 / deblock=1:-1:-1 / analyse=0x3:0x133 / me=umh / subme=9 / psy=1 / psy_rd=1.00:0.15 / mixed_ref=1 / me_range=24 / chroma_me=1 / trellis=2 / 8x8dct=1 / cqm=0 / deadzone=21,11 / fast_pskip=1 / chroma_qp_offset=-3 / threads=34 / lookahead_threads=5 / sliced_threads=0 / nr=150 / decimate=1 / interlaced=0 / bluray_compat=0 / constrained_intra=0 / bframes=8 / b_pyramid=2 / b_adapt=2 / b_bias=0 / direct=3 / weightb=1 / open_gop=0 / weightp=2 / keyint=120 / keyint_min=61 / scenecut=0 / intra_refresh=0 / rc_lookahead=120 / rc=crf / mbtree=1 / crf=18.0 / qcomp=0.60 / qpmin=0 / qpmax=69 / qpstep=4 / vbv_maxrate=15000 / vbv_bufsize=31250 / crf_max=0.0 / nal_hrd=vbr / filler=0 / ip_ratio=1.40 / aq=3:1.00
Default                        : Yes
Forced                         : No
Color range                    : Limited
Color primaries                : BT.709
Transfer characteristics       : BT.709
Matrix coefficients            : BT.709

Audio #1
ID                             : 2
Format                         : E-AC-3
Format/Info                    : Enhanced AC-3
Commercial name                : Dolby Digital Plus
Codec ID                       : A_EAC3
Duration                       : 23 min 49 s
Bit rate mode                  : Constant
Bit rate                       : 224 kb/s
Channel(s)                     : 2 channels
Channel layout                 : L R
Sampling rate                  : 48.0 kHz
Frame rate                     : 31.250 FPS (1536 SPF)
Compression mode               : Lossy
Stream size                    : 38.2 MiB (2%)
Title                          : 国语
Language                       : Chinese
Service kind                   : Complete Main
Default                        : Yes
Forced                         : No

Audio #2
ID                             : 3
Format                         : E-AC-3
Format/Info                    : Enhanced AC-3
Commercial name                : Dolby Digital Plus
Codec ID                       : A_EAC3
Duration                       : 23 min 49 s
Bit rate mode                  : Constant
Bit rate                       : 224 kb/s
Channel(s)                     : 2 channels
Channel layout                 : L R
Sampling rate                  : 48.0 kHz
Frame rate                     : 31.250 FPS (1536 SPF)
Compression mode               : Lossy
Stream size                    : 38.2 MiB (2%)
Title                          : 英语
Language                       : English
Service kind                   : Complete Main
Default                        : No
Forced                         : No


分享快乐!
回复

使用道具 举报

 

精彩评论2

正序浏览
svipdht 发表于 2020-5-6 05:36 | 显示全部楼层
 
感谢分享。。。
分享快乐!
回复

使用道具 举报

 
azenna 发表于 2020-8-14 21:24 | 显示全部楼层
 
感谢您的分享
分享快乐!
回复

使用道具 举报

 
您需要登录后才可以回帖 登录 | 立即注册

本版积分规则

0关注

11粉丝

838帖子

广告位
经典RPG武侠手游,安卓首发。
  • 版块推荐
  • 百宝箱
推荐阅读更多+
会员达人更多+
广告位
经典RPG武侠手游,安卓首发。

信息推荐

更多+

最新信息

更多+

加入我们!分享快乐!

人人为我,我为人人!抵制吸血和收费分享行为!

从我做起!

只分享高品质影视资源

只求质量、不求数量、不抢首发!

Email:[email protected]

DHTCLUB - 高品质影视资源分享俱乐部