开启左侧

海绵宝宝.第十一季.SpongeBob.SquarePants.Season.11.2017.4K.2160P.AAC-DHTCLUB

[复制链接]
dhtclub 发表于 2020-3-30 19:04 | 显示全部楼层 |阅读模式 打印 上一主题 下一主题

海绵宝宝 第十一季购买VIP查看下载地址(2017)4K 

简介史前的海绵被解冻后,他会在全镇造成混乱-只有海绵宝宝可以与他交流! 当一群蛤descend降落在比基尼泳裤上时,海绵宝宝必须在它们破坏整个城镇之前将它们赶出去!
导演Dave Cunningham / Adam Paloian
编剧史蒂芬·海伦伯格 / Derek Drymon
类型喜剧 动画 奇幻 家庭 
地区美国 
语言普通话 
集数13集
资源大小20.1G
字幕语言无内嵌字幕 
豆瓣评分9.5
豆瓣链接https://movie.douban.com/subject/29949617/
IMDB评分升级VIP查看密码
IMDB链接https://www.imdb.com/title/tt7103982/
演员表

海绵宝宝 第十一季 的主要演员表……

汤姆·肯尼 / 比尔·法格巴克 / 罗德格尔·邦帕斯 / 克兰西·布朗 / 卡罗琳·劳伦斯 / 迪·布拉雷·贝克尔 / 赛丽娜·欧文
影片介绍

海绵宝宝 第十一季 的剧情介绍……

史前的海绵被解冻后,他会在全镇造成混乱-只有海绵宝宝可以与他交流! 当一群蛤descend降落在比基尼泳裤上时,海绵宝宝必须在它们破坏整个城镇之前将它们赶出去!
资源下载
1080i/p下载地址 点击查看
4K下载地址 点击查看
《海绵宝宝 第十一季》下载帮助和注意事项:
1、本站所有资源均为磁力链资源,无需注册登录即可查看下载地址
2、使用迅雷或网盘离线是无法下载资源的!必须使用BT下载工具,如果没有下载速度请添加我们提供的tracker服务器列表
3、推荐BT下载工具:比特彗星qbittorrentutorrent 内网使用路由请做好端口映射或开启UPnP
4、不管选择哪种P2P下载工具,都希望你能在条件允许的前提下不要限速多做种分享上传一段时间
5、刻意限制P2P下载工具的上传速度(此行为俗称:吸血)将影响你的下载速度 防止被吸血和防止运营商过滤的教程
6、人人为我我为人人,只有大家不限制上传速度,大家才能共同获得更快的下载速度,这才是P2P应有的良性循环!
7、所有资源来源网络,本站服务器不存储任何种子文件,如侵犯您的权益,请联系 [email protected] 删除资源
点评&资源版本介绍

点评

海!外直播 v.ht/33888 禁闻视频 v.ht/44477 赵国,外交停留在声明层面,经济停留在印钞层面,社会停留在江湖层面,文化停留在献媚层面,思想停留在愚民层面,科技停留在山寨层面,内政停留在打压层面.外面没一个真朋友,家   发表于 2022-11-7 13:26
 
海绵宝宝.第十一季.SpongeBob.SquarePants.Season.11.2017.E01.4K.2160P.AAC-DHTCLUB.jpg
General
Format                         : MPEG-4
Format profile                 : Base Media
Codec ID                       : isom (isom/iso2/mp41)
File size                      : 823 MiB
Duration                       : 22 min 26 s
Overall bit rate mode          : Variable
Overall bit rate               : 5 130 kb/s
Writing application            : Lavf58.30.100

Video
ID                             : 1
Format                         : HEVC
Format/Info                    : High Efficiency Video Coding
Format profile                 : [email protected]@Main
Codec ID                       : hev1
Codec ID/Info                  : High Efficiency Video Coding
Duration                       : 22 min 26 s
Bit rate                       : 4 999 kb/s
Width                          : 3 840 pixels
Height                         : 2 160 pixels
Display aspect ratio           : 16:9
Frame rate mode                : Constant
Frame rate                     : 25.000 FPS
Color space                    : YUV
Chroma subsampling             : 4:2:0
Bit depth                      : 8 bits
Bits/(Pixel*Frame)             : 0.024
Stream size                    : 802 MiB (97%)
Codec configuration box        : hvcC

Audio
ID                             : 2
Format                         : AAC LC
Format/Info                    : Advanced Audio Codec Low Complexity
Codec ID                       : mp4a-40-2
Duration                       : 22 min 26 s
Bit rate mode                  : Variable
Bit rate                       : 124 kb/s
Maximum bit rate               : 129 kb/s
Channel(s)                     : 2 channels
Channel layout                 : L R
Sampling rate                  : 44.1 kHz
Frame rate                     : 43.066 FPS (1024 SPF)
Compression mode               : Lossy
Stream size                    : 20.0 MiB (2%)
Default                        : Yes
Alternate group                : 1

分享快乐!
回复

使用道具 举报

 

精彩评论3

正序浏览
svipdht 发表于 2020-4-22 21:35 | 显示全部楼层
 
感谢大佬分享
分享快乐!
回复

使用道具 举报

 
護護就是帅气 发表于 2022-11-7 12:53 | 显示全部楼层
 
请问有其他季吗?
分享快乐!
回复

使用道具 举报

 
您需要登录后才可以回帖 登录 | 立即注册

本版积分规则

0关注

18粉丝

869帖子

广告位
经典RPG武侠手游,安卓首发。
  • 版块推荐
  • 百宝箱
推荐阅读更多+
会员达人更多+
  • e2302

    主题:0 积分:11445
  • LCC

    主题:0 积分:9628
  • reese

    主题:0 积分:9091
广告位
经典RPG武侠手游,安卓首发。

信息推荐

更多+

最新信息

更多+

加入我们!分享快乐!

人人为我,我为人人!抵制吸血和收费分享行为!

从我做起!

只分享高品质影视资源

只求质量、不求数量、不抢首发!

Email:[email protected]

DHTCLUB - 高品质影视资源分享俱乐部