开启左侧

笑傲江湖.the.legendary.swordsman.2001.DVDRip.1080P.H265.AC3.DHTCLUB

[复制链接]
dhtclub 发表于 2020-4-4 00:25 | 显示全部楼层 |阅读模式 打印 上一主题 下一主题

笑傲江湖购买VIP查看下载地址(2005~2000)1080P 

简介华山派大弟子令狐冲(李亚鹏 饰)受师父岳不群(巍子 饰)之命,与青梅竹马的师妹岳灵珊(苗乙乙 饰)乔装成酒栈伙计,伏于武夷山脚。途中令狐冲巧遇魔教长老曲洋(丛志军 饰),二人惺惺相惜,师兄妹两人还救下了被青城派寻仇的福威镖局少镖头林平之(李解 饰)。林平之被带回华山后岳灵珊对其芳心暗许,这让令狐冲心里不是滋味,加上他身受重伤可能不久于人世,于是决定出走。行走江湖的途中他遇到了魔教圣姑任盈盈(许晴 饰),任盈盈喜欢他,不惜动用人力物力下为其疗伤。因缘际会,令狐冲得以认识了风清扬(于承惠 饰)、向问天(巴音 饰)、蓝凤凰(李菲 饰)、定逸师太(李勤勤 饰)等许多高手,学到了更高深的功夫还认识了美丽单纯的仪琳(陈丽峰)小师妹。他与任盈盈一起战胜了企图吞并五岳派的嵩山派掌门人左冷禅(涂门 饰),救出了被东方不败(茅威涛 饰)囚禁的盈盈之父任我行(吕晓禾 饰)。可是事情并未朝着想象的方向发展,一个东方不败死了新的东方不败又将诞生。
导演黄健中 / 元彬
编剧金庸 / 周锴 / 陈育新 / 陈兵
类型爱情 剧情 武侠 
地区中国内地 
语言普通话 
集数40集
资源大小38.3G
字幕语言无内嵌字幕 
豆瓣评分8.3
豆瓣链接https://movie.douban.com/subject/2155290/
IMDB评分8.0
IMDB链接https://www.imdb.com/title/tt1392724/
演员表

笑傲江湖 的主要演员表……

李亚鹏 / 许晴 / 苗乙乙 / 巍子 / 陈丽峰 / 李解 / 吕晓禾 / 涂们 / 刘冬 / 巴音 / 李勤勤 / 臧金生 / 杨昆 / 封锡钧 / 杨念生 / 彭登怀 / 于承惠 / 黄宗洛 / 李幸芷 / 孙海英 / 修宗迪 / 丛志军 / 刘仲元 / 张衡平 / 茅威涛 / 牛宝军 / 王振荣 / 孙存碟 / 李晓波 / 许敬义 / 马岩 / 王鑫峰 / 巨兴茂 / 巩立峰 / 赵福余 / 张纪中 / 王文升 / 齐忠坤 / 韩一朋 / 李强 / 李旗山 / 李菁菁 / 袁芳 / 牛星丽 / 李中华 / 夏宗学 / 乌兰宝音 / 于鸿洲 / 柏杉 / 李振平 / 赵箭 / 丁翠华 / 张成武 / 李义华 / 魏峰 / 韩福利 / 王成
影片介绍

笑傲江湖 的剧情介绍……

华山派大弟子令狐冲(李亚鹏 饰)受师父岳不群(巍子 饰)之命,与青梅竹马的师妹岳灵珊(苗乙乙 饰)乔装成酒栈伙计,伏于武夷山脚。途中令狐冲巧遇魔教长老曲洋(丛志军 饰),二人惺惺相惜,师兄妹两人还救下了被青城派寻仇的福威镖局少镖头林平之(李解 饰)。林平之被带回华山后岳灵珊对其芳心暗许,这让令狐冲心里不是滋味,加上他身受重伤可能不久于人世,于是决定出走。行走江湖的途中他遇到了魔教圣姑任盈盈(许晴 饰),任盈盈喜欢他,不惜动用人力物力下为其疗伤。因缘际会,令狐冲得以认识了风清扬(于承惠 饰)、向问天(巴音 饰)、蓝凤凰(李菲 饰)、定逸师太(李勤勤 饰)等许多高手,学到了更高深的功夫还认识了美丽单纯的仪琳(陈丽峰)小师妹。他与任盈盈一起战胜了企图吞并五岳派的嵩山派掌门人左冷禅(涂门 饰),救出了被东方不败(茅威涛 饰)囚禁的盈盈之父任我行(吕晓禾 饰)。可是事情并未朝着想象的方向发展,一个东方不败死了新的东方不败又将诞生。
资源下载
1080i/p下载地址 点击查看
4K下载地址 点击查看
《笑傲江湖》下载帮助和注意事项:
1、本站所有资源均为磁力链资源,无需注册登录即可查看下载地址
2、使用迅雷或网盘离线是无法下载资源的!必须使用BT下载工具,如果没有下载速度请添加我们提供的tracker服务器列表
3、推荐BT下载工具:比特彗星qbittorrentutorrent 内网使用路由请做好端口映射或开启UPnP
4、不管选择哪种P2P下载工具,都希望你能在条件允许的前提下不要限速多做种分享上传一段时间
5、刻意限制P2P下载工具的上传速度(此行为俗称:吸血)将影响你的下载速度 防止被吸血和防止运营商过滤的教程
6、人人为我我为人人,只有大家不限制上传速度,大家才能共同获得更快的下载速度,这才是P2P应有的良性循环!
7、所有资源来源网络,本站服务器不存储任何种子文件,如侵犯您的权益,请联系 [email protected] 删除资源
点评&资源版本介绍
 
笑傲江湖.the.legendary.swordsman.2001.EP01.DVDRip.1080p.H265.AC3-DHTCLUB.jpg
之前有错误已经重新制作,请2020年4月8日晚上10点42分之前下载的小伙伴重新下载。
General
Unique ID                      : 286038486690166771145173485614535057124 (0xD73102389D81340F2253973FCD849EE4)
Format                         : Matroska
Format version                 : Version 4
File size                      : 1.06 GiB
Duration                       : 47 min 14 s
Overall bit rate               : 3 217 kb/s
Writing application            : Lavf58.29.100
Writing library                : Lavf58.29.100
ErrorDetectionType             : Per level 1

Video
ID                             : 1
Format                         : HEVC
Format/Info                    : High Efficiency Video Coding
Format profile                 : [email protected]@Main
Codec ID                       : V_MPEGH/ISO/HEVC
Duration                       : 47 min 14 s
Bit rate                       : 1 875 kb/s
Width                          : 1 440 pixels
Height                         : 1 080 pixels
Display aspect ratio           : 4:3
Frame rate mode                : Constant
Frame rate                     : 29.970 (29970/1000) FPS
Color space                    : YUV
Chroma subsampling             : 4:2:0
Bit depth                      : 8 bits
Bits/(Pixel*Frame)             : 0.040
Stream size                    : 633 MiB (58%)
Writing library                : Lavc58.54.100 hevc_nvenc
Language                       : Chinese
Default                        : Yes
Forced                         : No

Audio
ID                             : 2
Format                         : AC-3
Format/Info                    : Audio Coding 3
Commercial name                : Dolby Digital
Codec ID                       : A_AC3
Duration                       : 47 min 13 s
Bit rate mode                  : Constant
Bit rate                       : 192 kb/s
Channel(s)                     : 1 channel
Channel layout                 : C
Sampling rate                  : 48.0 kHz
Frame rate                     : 31.250 FPS (1536 SPF)
Bit depth                      : 16 bits
Compression mode               : Lossy
Stream size                    : 64.8 MiB (6%)
Language                       : Chinese
Service kind                   : Complete Main
Default                        : Yes
Forced                         : No

分享快乐!
回复

使用道具 举报

 

精彩评论19

正序浏览
z1hang 发表于 2020-4-4 20:34 | 显示全部楼层
 
900多m,码率不高啊
分享快乐!
回复

使用道具 举报

 
vampire 发表于 2020-4-4 22:11 | 显示全部楼层
 
感谢分享。
这个都有了,那么金庸大师的其他武侠著作《倚天屠龙记》等,是不是也要来了呢?还有古龙大师的,是不是也近了?
嘿嘿!
我爱你的血!
回复

使用道具 举报

 
gyngh521 发表于 2020-4-6 21:03 | 显示全部楼层
 
一集怎么才20多分钟不全啊!
分享快乐!
回复

使用道具 举报

 
gyngh521 发表于 2020-4-6 21:03 | 显示全部楼层
 
一集才20多分钟,不对吧!
分享快乐!
回复

使用道具 举报

 
dhtclub 发表于 2020-4-6 21:45 | 显示全部楼层
 
gyngh521 发表于 2020-4-6 21:03
一集怎么才20多分钟不全啊!

不好意思,先别下载这个了,我重新制作一下。
分享快乐!
回复

使用道具 举报

 
 楼主| dhtclub 发表于 2020-4-9 13:30 | 显示全部楼层
 
gyngh521 发表于 2020-4-6 21:03
一集才20多分钟,不对吧!

已经重新制作了,请重新获取新的磁力链下载。
分享快乐!
回复

使用道具 举报

 
 楼主| nymph 发表于 2020-4-9 21:52 | 显示全部楼层
 
请晴当年真好看,嘴唇太性感
分享快乐!
回复

使用道具 举报

 
svipdht 发表于 2020-4-10 10:50 | 显示全部楼层
 
感谢分享。经典系列
分享快乐!
回复

使用道具 举报

 
svipdht 发表于 2020-4-13 06:10 | 显示全部楼层
 
感谢分享。。
分享快乐!
回复

使用道具 举报

 
您需要登录后才可以回帖 登录 | 立即注册

本版积分规则

0关注

14粉丝

856帖子

广告位
经典RPG武侠手游,安卓首发。
  • 版块推荐
  • 百宝箱
会员达人更多+
  • e2302

    主题:0 积分:11347
  • reese

    主题:0 积分:8396
  • powwow

    主题:0 积分:3294
广告位
经典RPG武侠手游,安卓首发。

信息推荐

更多+

最新信息

更多+

加入我们!分享快乐!

人人为我,我为人人!抵制吸血和收费分享行为!

从我做起!

只分享高品质影视资源

只求质量、不求数量、不抢首发!

Email:[email protected]

DHTCLUB - 高品质影视资源分享俱乐部