开启左侧

陈情令.The.Untamed.2019.2160p.WEB-DL.H265.AAC-DHTCLUB

[复制链接]
dhtclub 发表于 2020-4-10 11:15 | 显示全部楼层 |阅读模式 打印 上一主题 下一主题

陈情令购买VIP查看下载地址(2019)4K 

简介十六年前,天下五分,姑苏蓝氏,云梦江氏,清河聂氏,岐山温氏,兰陵金氏共治天下。温氏一家独大,其余四家均受其苦。众家青年中,江氏故人之子魏无羡性格开朗,和以雅正闻名的姑苏蓝氏弟子蓝忘机相识并引为知己。一次偶然的机会,二人发现了蓝氏一直以来守护的秘密,二人继承遗志,为苍生消除隐患。但没想到一切的幕后黑手正是温氏家主温若寒。众家不堪其辱,合力讨伐温氏。温氏覆灭后,魏无羡却为保护温氏无辜之人不惜与众家对立,最终被奸人所害酿成大祸,误害师姐江厌离,自己也不知所踪。十六年后,消失已久的魏无羡出现在莫家庄,偶遇故人蓝忘机。莫家庄一桩桩诡异的凶案显得扑朔迷离。随着真相一步步揭开,身处幕后的金光瑶渐渐难以隐藏。最后金光瑶身死,蓝忘机承担起了匡扶天下的使命,而魏无羡不忘初心,最终潇洒世间。
导演郑伟文 / 陈家霖
编剧杨夏 / 邓窅瑜 / 马竞 / 郭光韵
类型剧情 古装 
地区中国内地 
语言普通话 
集数50集
资源大小88.9G
字幕语言内嵌简中 
豆瓣评分7.7
豆瓣链接https://movie.douban.com/subject/27195020/
IMDB评分8.9
IMDB链接https://www.imdb.com/title/tt10554898
演员表

陈情令 的主要演员表……

肖战 / 王一博 / 孟子义 / 宣璐 / 于斌 / 汪卓成 / 刘海宽 / 李若彤 / 陆剑民 / 黄子腾 / 修庆 / 胡小庭 / 李玉峰 / 朱赞锦 / 王皓轩 / 纪李 / 王翌舟 / 宋继扬 / 李泊文 / 曹煜辰 / 漆培鑫 / 郑繁星 / 郭丞 / 贺鹏 / 卢蒽洁 / 王艺霏 / 陈卓璇 / 曹峻祥 / 张净桐 / 冯茗惊 / 姚书豪 / 冯聪 / 刘庭羽 / 汪融 / 孙晟轩 / 贾舒夷 / 刘道民 / 冯麒诺 / 杜帅杰 / 牛志强 / 蔡迎春 / 尹建祥 / 刘胤君 / 姜奕廷 / 林宸锐 / 苏雅馨 / 叶轩彤 / 陈俊凯 / 沈毅峯 / 黄振宸 / 林辰唏 / 苏秋逸 / 江嘉维 / 朴长城 / 张野 / 徐晓文 / 金璐莹 / 张静 / 刘潇杉 / 樊华伟 / 苏月 / 于子宽 / 张彬 / 张琳然 / 李橹进 / 沈鑫 / 焦长顺 / 刘凤民 / 孙亮 / 黄英
影片介绍

陈情令 的剧情介绍……

十六年前,天下五分,姑苏蓝氏,云梦江氏,清河聂氏,岐山温氏,兰陵金氏共治天下。温氏一家独大,其余四家均受其苦。众家青年中,江氏故人之子魏无羡性格开朗,和以雅正闻名的姑苏蓝氏弟子蓝忘机相识并引为知己。一次偶然的机会,二人发现了蓝氏一直以来守护的秘密,二人继承遗志,为苍生消除隐患。但没想到一切的幕后黑手正是温氏家主温若寒。众家不堪其辱,合力讨伐温氏。温氏覆灭后,魏无羡却为保护温氏无辜之人不惜与众家对立,最终被奸人所害酿成大祸,误害师姐江厌离,自己也不知所踪。十六年后,消失已久的魏无羡出现在莫家庄,偶遇故人蓝忘机。莫家庄一桩桩诡异的凶案显得扑朔迷离。随着真相一步步揭开,身处幕后的金光瑶渐渐难以隐藏。最后金光瑶身死,蓝忘机承担起了匡扶天下的使命,而魏无羡不忘初心,最终潇洒世间。
资源下载
1080i/p下载地址 点击查看
4K下载地址 点击查看
《陈情令》下载帮助和注意事项:
1、本站所有资源均为磁力链资源,无需注册登录即可查看下载地址
2、使用迅雷或网盘离线是无法下载资源的!必须使用BT下载工具,如果没有下载速度请添加我们提供的tracker服务器列表
3、推荐BT下载工具:比特彗星qbittorrentutorrent 内网使用路由请做好端口映射或开启UPnP
4、不管选择哪种P2P下载工具,都希望你能在条件允许的前提下不要限速多做种分享上传一段时间
5、刻意限制P2P下载工具的上传速度(此行为俗称:吸血)将影响你的下载速度 防止被吸血和防止运营商过滤的教程
6、人人为我我为人人,只有大家不限制上传速度,大家才能共同获得更快的下载速度,这才是P2P应有的良性循环!
7、所有资源来源网络,本站服务器不存储任何种子文件,如侵犯您的权益,请联系 [email protected] 删除资源
点评&资源版本介绍
 
陈情令.The.Untamed.2019.EP01.4K.2160P.WEPB-DL.H264.AAC-DHTCLUB.jpg
General
Format                         : MPEG-4
Format profile                 : Base Media
Codec ID                       : isom (isom/iso2/mp41)
File size                      : 1.85 GiB
Duration                       : 42 min 16 s
Overall bit rate mode          : Variable
Overall bit rate               : 6 255 kb/s
Writing application            : Lavf58.10.100

Video
ID                             : 1
Format                         : HEVC
Format/Info                    : High Efficiency Video Coding
Format profile                 : [email protected]@Main
Codec ID                       : hev1
Codec ID/Info                  : High Efficiency Video Coding
Duration                       : 42 min 16 s
Bit rate                       : 6 121 kb/s
Width                          : 3 840 pixels
Height                         : 2 160 pixels
Display aspect ratio           : 16:9
Frame rate mode                : Variable
Frame rate                     : 25.000 FPS
Minimum frame rate             : 24.993 FPS
Maximum frame rate             : 25.007 FPS
Color space                    : YUV
Chroma subsampling             : 4:2:0
Bit depth                      : 8 bits
Bits/(Pixel*Frame)             : 0.030
Stream size                    : 1.81 GiB (98%)
Color range                    : Limited
Color primaries                : BT.709
Transfer characteristics       : BT.709
Matrix coefficients            : BT.709
Codec configuration box        : hvcC

Audio
ID                             : 2
Format                         : AAC LC
Format/Info                    : Advanced Audio Codec Low Complexity
Codec ID                       : mp4a-40-2
Duration                       : 42 min 16 s
Bit rate mode                  : Variable
Bit rate                       : 128 kb/s
Maximum bit rate               : 130 kb/s
Channel(s)                     : 2 channels
Channel layout                 : L R
Sampling rate                  : 48.0 kHz
Frame rate                     : 46.875 FPS (1024 SPF)
Compression mode               : Lossy
Stream size                    : 38.7 MiB (2%)
Default                        : Yes
Alternate group                : 1


标签:陈情
分享快乐!
回复

使用道具 举报

 

精彩评论3

正序浏览
亦儒向东 发表于 2020-4-13 12:56 | 显示全部楼层
 
陈情令收了好几个G的各种资源
分享快乐!
回复

使用道具 举报

 
飞猪 发表于 2020-4-29 15:22 | 显示全部楼层
 
这部剧拍得不错很喜欢。
两个男主没有真正爱上过一个女人,重友轻色。
最后两人结伴浪迹天涯------


0.jpg

0382568cef3043daa6cebef81f3f5f44.jpeg

u=3236905213,2771147505&fm=26&gp=0.jpg

u=2973042557,2705967455&fm=26&gp=0.jpg

分享快乐!
回复

使用道具 举报

 
落落吖 发表于 2021-8-26 01:20 | 显示全部楼层
 
有没有百度网盘链接的啊~求一个😭😭
分享快乐!
回复

使用道具 举报

 
您需要登录后才可以回帖 登录 | 立即注册

本版积分规则

0关注

14粉丝

856帖子

广告位
经典RPG武侠手游,安卓首发。
  • 版块推荐
  • 百宝箱
会员达人更多+
  • e2302

    主题:0 积分:11347
  • reese

    主题:0 积分:8396
  • powwow

    主题:0 积分:3294
广告位
经典RPG武侠手游,安卓首发。

信息推荐

更多+

最新信息

更多+

加入我们!分享快乐!

人人为我,我为人人!抵制吸血和收费分享行为!

从我做起!

只分享高品质影视资源

只求质量、不求数量、不抢首发!

Email:[email protected]

DHTCLUB - 高品质影视资源分享俱乐部