开启左侧

寻味顺德.Special.Edition-A.Bite.of.Shunde.1080P.x264.AC3-DHTCLUB

[复制链接]
dhtclub 发表于 2020-4-10 11:47 | 显示全部楼层 |阅读模式 打印 上一主题 下一主题

寻味顺德购买VIP查看下载地址(2016)1080P 

简介《寻味顺德》由创作《舌尖上的中国》的主力团队担纲制作,《舌尖》系列片总导演、央视纪录频道项目运营部主任陈晓卿担任该片总顾问,《舌尖》第二季之《秘境》的导演刘硕和费牖明共同执导;著名配音表演艺术家、《舌尖》系列片解说李立宏担任解说;国内一流的文化学、人类学等诸多领域的专家学者和美食达人组成庞大的顾问团队,为该片奉献了绝佳的创意和专业的支持。
  “今天是谷雨,一年前这部纪录片在顺德开始拍摄。我们走遍了大街小巷,每天都能感受到顺德带给我们的惊喜。”刘硕和费牖明说,积累了36,000分钟的原始素材,最终精剪出150分钟的《寻味顺德》,这其间,摄制团队经历了很多意想不到的艰辛。“在三集的纪录片中,我们不仅要讲述珠三角的悠久传统,向祖先的智慧致敬,更重要的是表达一个主题:在美食传统中寻找前行的力量。”他们表示,作为《舌尖》第二季的导演,创作《寻味顺德》是又一次难得的历练机会,系统学习了媒体纪录片的模式化制作,真正做到在创作的各个环节都符合纪录片国际化的规范和标准。
导演刘硕 / 费牖明
编剧暂无
类型美食 
地区中国内地 
语言普通话 
集数3集
资源大小9.9G
字幕语言内嵌简中 
豆瓣评分9.0
豆瓣链接https://movie.douban.com/subject/26784894/
IMDB评分升级VIP查看密码
IMDB链接
演员表

寻味顺德 的主要演员表……

李立宏
影片介绍

寻味顺德 的剧情介绍……

《寻味顺德》由创作《舌尖上的中国》的主力团队担纲制作,《舌尖》系列片总导演、央视纪录频道项目运营部主任陈晓卿担任该片总顾问,《舌尖》第二季之《秘境》的导演刘硕和费牖明共同执导;著名配音表演艺术家、《舌尖》系列片解说李立宏担任解说;国内一流的文化学、人类学等诸多领域的专家学者和美食达人组成庞大的顾问团队,为该片奉献了绝佳的创意和专业的支持。
  “今天是谷雨,一年前这部纪录片在顺德开始拍摄。我们走遍了大街小巷,每天都能感受到顺德带给我们的惊喜。”刘硕和费牖明说,积累了36,000分钟的原始素材,最终精剪出150分钟的《寻味顺德》,这其间,摄制团队经历了很多意想不到的艰辛。“在三集的纪录片中,我们不仅要讲述珠三角的悠久传统,向祖先的智慧致敬,更重要的是表达一个主题:在美食传统中寻找前行的力量。”他们表示,作为《舌尖》第二季的导演,创作《寻味顺德》是又一次难得的历练机会,系统学习了媒体纪录片的模式化制作,真正做到在创作的各个环节都符合纪录片国际化的规范和标准。
资源下载
1080i/p下载地址 点击查看
4K下载地址 点击查看
《寻味顺德》下载帮助和注意事项:
1、本站所有资源均为磁力链资源,无需注册登录即可查看下载地址
2、使用迅雷或网盘离线是无法下载资源的!必须使用BT下载工具,如果没有下载速度请添加我们提供的tracker服务器列表
3、推荐BT下载工具:比特彗星qbittorrentutorrent 内网使用路由请做好端口映射或开启UPnP
4、不管选择哪种P2P下载工具,都希望你能在条件允许的前提下不要限速多做种分享上传一段时间
5、刻意限制P2P下载工具的上传速度(此行为俗称:吸血)将影响你的下载速度 防止被吸血和防止运营商过滤的教程
6、人人为我我为人人,只有大家不限制上传速度,大家才能共同获得更快的下载速度,这才是P2P应有的良性循环!
7、所有资源来源网络,本站服务器不存储任何种子文件,如侵犯您的权益,请联系 [email protected] 删除资源
点评&资源版本介绍
 
寻味顺德.Special.Edition-A.Bite.of.Shunde.EP01.1080P.x264.AC3-DHTCLUB.jpg
General
Unique ID                      : 58238460620424136188466286763843734719 (0x2BD051CC3823D12FE31D3D5014CF4CBF)
Format                         : Matroska
Format version                 : Version 4
File size                      : 3.27 GiB
Duration                       : 49 min 59 s
Overall bit rate               : 9 360 kb/s
Encoded date                   : UTC 2020-04-10 03:21:02
Writing application            : mkvmerge v45.0.0 ('Heaven in Pennies') 64-bit
Writing library                : libebml v1.3.10 + libmatroska v1.5.2

Video
ID                             : 1
Format                         : AVC
Format/Info                    : Advanced Video Codec
Format profile                 : [email protected]
Format settings                : 1 Ref Frames
Format settings, CABAC         : No
Format settings, Reference fra : 1 frame
Codec ID                       : V_MPEG4/ISO/AVC
Duration                       : 49 min 59 s
Bit rate                       : 9 038 kb/s
Width                          : 1 920 pixels
Height                         : 1 080 pixels
Display aspect ratio           : 16:9
Frame rate mode                : Constant
Frame rate                     : 25.000 FPS
Color space                    : YUV
Chroma subsampling             : 4:2:0
Bit depth                      : 8 bits
Scan type                      : Progressive
Bits/(Pixel*Frame)             : 0.174
Stream size                    : 3.16 GiB (97%)
Default                        : Yes
Forced                         : No

Audio
ID                             : 2
Format                         : AC-3
Format/Info                    : Audio Coding 3
Commercial name                : Dolby Digital
Codec ID                       : A_AC3
Duration                       : 49 min 59 s
Bit rate mode                  : Constant
Bit rate                       : 320 kb/s
Channel(s)                     : 2 channels
Channel layout                 : L R
Sampling rate                  : 48.0 kHz
Frame rate                     : 31.250 FPS (1536 SPF)
Bit depth                      : 16 bits
Compression mode               : Lossy
Stream size                    : 114 MiB (3%)
Service kind                   : Complete Main
Default                        : Yes
Forced                         : No


分享快乐!
回复

使用道具 举报

 

精彩评论2

正序浏览
tanjianjian 发表于 2020-4-10 16:12 | 显示全部楼层
 
非常感谢论坛的给力分享,必须要点赞
分享快乐!
回复

使用道具 举报

 
zoievpaul 发表于 2020-11-20 08:55 | 显示全部楼层
 
謝謝分享國寶級美食節目
分享快乐!
回复

使用道具 举报

 
您需要登录后才可以回帖 登录 | 立即注册

本版积分规则

0关注

11粉丝

838帖子

广告位
经典RPG武侠手游,安卓首发。
  • 版块推荐
  • 百宝箱
推荐阅读更多+
会员达人更多+
广告位
经典RPG武侠手游,安卓首发。

信息推荐

更多+

最新信息

更多+

加入我们!分享快乐!

人人为我,我为人人!抵制吸血和收费分享行为!

从我做起!

只分享高品质影视资源

只求质量、不求数量、不抢首发!

Email:[email protected]

DHTCLUB - 高品质影视资源分享俱乐部