开启左侧

颐和园.Summer.Palace.2006.1080P.x264.AC3-DHTCLUB

[复制链接]
dhtclub 发表于 2020-4-11 08:41 | 显示全部楼层 |阅读模式 打印 上一主题 下一主题

颐和园Summer Palace(2010~2006)1080P 

简介影片讲述了在1989年的中国,当时社会政治复杂,身处其中的两个年轻人的爱恨纠葛。漂亮的余虹离开了她的村庄、家庭和男友去北京学习,在那里她发现了一个崭新的世界。并爱上了周伟。两个人的关系变得危险起来。
余虹作为一个刚刚从边远小城来到北京大学的年轻女孩,她有种浪漫的、有时候甚至是奋不顾身的想法,在日记中她倾注了对一种猛烈的生活的渴望。在影片的前半部,经过了几段友情、朦胧的爱情,和周伟,一个瘦削的、书卷气的男孩,她一生的最爱:之间激烈的、嫉妒的、分分合合的感情,满足了她这种渴望。
但是余虹和周伟以及影片中他们的朋友、敌人,不是普通的大学学生。或者这么说,他们的大学生活有个非同寻常的背景。余虹1988年来到北京,她的大学的第一年从感情和性的混乱开始,结束于那场动荡的社会事件。
导演娄烨
编剧暂无
类型剧情 
地区中国内地 
语言普通话 
时长135分钟
资源大小7.2G
字幕语言内嵌简中 内嵌繁中 内嵌英语 
豆瓣评分无分
豆瓣链接
IMDB评分7.1
IMDB链接https://www.imdb.com/title/tt0794374/
演员表

颐和园 的主要演员表……

郭晓冬/郝蕾/胡伶/崔林
影片介绍

颐和园 的剧情介绍……

影片讲述了在1989年的中国,当时社会政治复杂,身处其中的两个年轻人的爱恨纠葛。漂亮的余虹离开了她的村庄、家庭和男友去北京学习,在那里她发现了一个崭新的世界。并爱上了周伟。两个人的关系变得危险起来。
余虹作为一个刚刚从边远小城来到北京大学的年轻女孩,她有种浪漫的、有时候甚至是奋不顾身的想法,在日记中她倾注了对一种猛烈的生活的渴望。在影片的前半部,经过了几段友情、朦胧的爱情,和周伟,一个瘦削的、书卷气的男孩,她一生的最爱:之间激烈的、嫉妒的、分分合合的感情,满足了她这种渴望。
但是余虹和周伟以及影片中他们的朋友、敌人,不是普通的大学学生。或者这么说,他们的大学生活有个非同寻常的背景。余虹1988年来到北京,她的大学的第一年从感情和性的混乱开始,结束于那场动荡的社会事件。
资源下载
1080i/p下载地址 点击查看
4K下载地址 点击查看
《颐和园》下载帮助和注意事项:
1、本站所有资源均为磁力链资源,无需注册登录即可查看下载地址
2、使用迅雷或网盘离线是无法下载资源的!必须使用BT下载工具,如果没有下载速度请添加我们提供的tracker服务器列表
3、推荐BT下载工具:比特彗星qbittorrentutorrent 内网使用路由请做好端口映射或开启UPnP
4、不管选择哪种P2P下载工具,都希望你能在条件允许的前提下不要限速多做种分享上传一段时间
5、刻意限制P2P下载工具的上传速度(此行为俗称:吸血)将影响你的下载速度 防止被吸血和防止运营商过滤的教程
6、人人为我我为人人,只有大家不限制上传速度,大家才能共同获得更快的下载速度,这才是P2P应有的良性循环!
7、所有资源来源网络,本站服务器不存储任何种子文件,如侵犯您的权益,请联系 [email protected] 删除资源
点评&资源版本介绍
 
颐和园.Summer.Palace.2006.1080P.x264.AC3-DHTCLUB.jpg
General
Unique ID                      : 197901732331431659893339998658443584855 (0x94E27CBB6372F64F878F7E288157A557)
Format                         : Matroska
Format version                 : Version 4
File size                      : 7.13 GiB
Duration                       : 2 h 14 min
Overall bit rate mode          : Variable
Overall bit rate               : 7 586 kb/s
Movie name                     : 頤和園 Summer Palace (2006)
Encoded date                   : UTC 2019-02-08 02:01:36
Writing application            : mkvmerge v6.8.0 ('Theme for Great Cities') 64bit built on Mar  2 2014 21:34:26
Writing library                : libebml v1.3.0 + libmatroska v1.4.1

Video
ID                             : 1
Format                         : MPEG Video
Format version                 : Version 2
Format profile                 : [email protected]
Format settings, BVOP          : No
Format settings, Matrix        : Default
Format settings, GOP           : N=12
Codec ID                       : V_MPEG2
Codec ID/Info                  : MPEG 1 or 2 Video
Duration                       : 2 h 14 min
Bit rate mode                  : Variable
Bit rate                       : 6 987 kb/s
Width                          : 1 920 pixels
Height                         : 1 024 pixels
Display aspect ratio           : 1.85:1
Frame rate mode                : Constant
Frame rate                     : 25.000 FPS
Color space                    : YUV
Chroma subsampling             : 4:2:0
Bit depth                      : 8 bits
Scan type                      : Progressive
Compression mode               : Lossy
Bits/(Pixel*Frame)             : 0.142
Time code of first frame       : 00:00:00:00
Time code source               : Group of pictures header
GOP, Open/Closed               : Open
GOP, Open/Closed of first fram : Closed
Stream size                    : 6.56 GiB (92%)
Default                        : Yes
Forced                         : No

Audio
ID                             : 2
Format                         : AC-3
Format/Info                    : Audio Coding 3
Commercial name                : Dolby Digital
Codec ID                       : A_AC3
Duration                       : 2 h 14 min
Bit rate mode                  : Constant
Bit rate                       : 448 kb/s
Channel(s)                     : 6 channels
Channel layout                 : L R C LFE Ls Rs
Sampling rate                  : 48.0 kHz
Frame rate                     : 31.250 FPS (1536 SPF)
Bit depth                      : 16 bits
Compression mode               : Lossy
Delay relative to video        : -5 ms
Stream size                    : 431 MiB (6%)
Language                       : Chinese
Service kind                   : Complete Main
Default                        : Yes
Forced                         : No

Text #1
ID                             : 3
Format                         : SSA
Codec ID                       : S_TEXT/SSA
Codec ID/Info                  : Sub Station Alpha
Compression mode               : Lossless
Title                          : 简体中文
Default                        : Yes
Forced                         : No

Text #2
ID                             : 4
Format                         : SSA
Codec ID                       : S_TEXT/SSA
Codec ID/Info                  : Sub Station Alpha
Compression mode               : Lossless
Title                          : 繁体中文
Default                        : No
Forced                         : No

Text #3
ID                             : 5
Format                         : SSA
Codec ID                       : S_TEXT/SSA
Codec ID/Info                  : Sub Station Alpha
Compression mode               : Lossless
Title                          : 英文
Default                        : No
Forced                         : No


分享快乐!
回复

使用道具 举报

 

精彩评论6

正序浏览
huminju 发表于 2020-4-11 12:58 | 显示全部楼层
 
此片当年是禁片,现在解禁了,不容易啊!
分享快乐!
回复

使用道具 举报

 
明善诚身 发表于 2020-4-11 16:36 | 显示全部楼层
 
huminju 发表于 2020-4-11 12:58
此片当年是禁片,现在解禁了,不容易啊!

现在还是禁片吧,豆瓣至今没有条目
分享快乐!
回复

使用道具 举报

 
三行而后思 发表于 2020-4-11 19:26 | 显示全部楼层
 
这个厉害啊,这可是禁了的,不过说实话,看完了也没觉得有什么,历史上那点儿事儿早就翻篇了啊
分享快乐!
回复

使用道具 举报

 
yuhong 发表于 2021-6-24 19:06 | 显示全部楼层
 
三行而后思 发表于 2020-4-11 19:26
这个厉害啊,这可是禁了的,不过说实话,看完了也没觉得有什么,历史上那点儿事儿早就翻篇了啊

magnet:?xt=urn:btih:354F04F837FC400E877F2CBA570D161D3258A25B&dn=Summer.Palace.2006.DVD.AC3.x264-Topaz

有个更长的版本
分享快乐!
回复

使用道具 举报

 
hjrt 发表于 2021-6-25 22:50 | 显示全部楼层
 
郝蕾演完这片好像被封杀,就现在来说都是很大胆的演出
分享快乐!
回复

使用道具 举报

 
arita99 发表于 2021-7-5 13:36 | 显示全部楼层
 
有个更长的142版本不知哪里有啊
分享快乐!
回复

使用道具 举报

 
您需要登录后才可以回帖 登录 | 立即注册

本版积分规则

0关注

11粉丝

838帖子

广告位
经典RPG武侠手游,安卓首发。
  • 版块推荐
  • 百宝箱
推荐阅读更多+
会员达人更多+
广告位
经典RPG武侠手游,安卓首发。

信息推荐

更多+

最新信息

更多+

加入我们!分享快乐!

人人为我,我为人人!抵制吸血和收费分享行为!

从我做起!

只分享高品质影视资源

只求质量、不求数量、不抢首发!

Email:[email protected]

DHTCLUB - 高品质影视资源分享俱乐部