开启左侧

走向共和.For.the.Sake.of.the.Republic.2003.4K.WEB-DL.HEVC.AAC-DHTCLUB

[复制链接]
dhtclub 发表于 2020-4-13 08:43 | 显示全部楼层 |阅读模式 打印 上一主题 下一主题

走向共和购买VIP查看下载地址(2005~2000)4K 

简介19世纪末到20世纪初,这当中的二三十年说短不短说长也不长。对于中国,则是风云变化的几十年。在这当中,中国自二次鸦片战争后,又经历了洋务运动、甲午战争、戊戌变法、辛亥革命、二次革命等。其中,中国结束了清朝的统治,走向了民国;新思潮开始传来,旧制度渐渐走向衰退。千疮百孔的中国也正向着更光明的明天前进着。
  在这二三十年的历史河流中,留下了许多亦正亦邪的人物,慈禧太后(吕中 饰)、李鸿章(王冰 饰)、袁世凯(孙淳 饰)、孙中山(马少骅 饰)等他们被记载在历史课本里,和中国的历史相挂钩。借由这部剧,让我们再回顾一下那个时代,那个风起云涌变化万千的时代。前路虽然艰辛,但我们也正一步步向前迈进。
导演张黎
编剧盛和煜 / 张建伟
类型剧情 历史 
地区中国内地 
语言普通话 
集数59集
资源大小72G
字幕语言内嵌繁中 
豆瓣评分9.7
豆瓣链接https://movie.douban.com/subject/1441794/
IMDB评分9.2
IMDB链接https://www.imdb.com/title/tt1841462
演员表

走向共和 的主要演员表……

王冰 / 吕中 / 马少骅 / 孙淳 / 李光洁 / 孙宁 / 徐敏 / 郑天庸 / 戈治均 / 廖丙炎 / 张洪睿
影片介绍

走向共和 的剧情介绍……

19世纪末到20世纪初,这当中的二三十年说短不短说长也不长。对于中国,则是风云变化的几十年。在这当中,中国自二次鸦片战争后,又经历了洋务运动、甲午战争、戊戌变法、辛亥革命、二次革命等。其中,中国结束了清朝的统治,走向了民国;新思潮开始传来,旧制度渐渐走向衰退。千疮百孔的中国也正向着更光明的明天前进着。
  在这二三十年的历史河流中,留下了许多亦正亦邪的人物,慈禧太后(吕中 饰)、李鸿章(王冰 饰)、袁世凯(孙淳 饰)、孙中山(马少骅 饰)等他们被记载在历史课本里,和中国的历史相挂钩。借由这部剧,让我们再回顾一下那个时代,那个风起云涌变化万千的时代。前路虽然艰辛,但我们也正一步步向前迈进。
资源下载
1080i/p下载地址 点击查看
4K下载地址 点击查看
《走向共和》下载帮助和注意事项:
1、本站所有资源均为磁力链资源,无需注册登录即可查看下载地址
2、使用迅雷或网盘离线是无法下载资源的!必须使用BT下载工具,如果没有下载速度请添加我们提供的tracker服务器列表
3、推荐BT下载工具:比特彗星qbittorrentutorrent 内网使用路由请做好端口映射或开启UPnP
4、不管选择哪种P2P下载工具,都希望你能在条件允许的前提下不要限速多做种分享上传一段时间
5、刻意限制P2P下载工具的上传速度(此行为俗称:吸血)将影响你的下载速度 防止被吸血和防止运营商过滤的教程
6、人人为我我为人人,只有大家不限制上传速度,大家才能共同获得更快的下载速度,这才是P2P应有的良性循环!
7、所有资源来源网络,本站服务器不存储任何种子文件,如侵犯您的权益,请联系 [email protected] 删除资源
点评&资源版本介绍
 
走向共和.For.the.Sake.of.the.Republic.2003.E01.4K.WEB-DL.HEVC.AAC-DHTCLUB.jpg
General
Format                         : MPEG-4
Format profile                 : Base Media
Codec ID                       : isom (isom/iso2/mp41)
File size                      : 1.12 GiB
Duration                       : 47 min 43 s
Overall bit rate               : 3 373 kb/s
Writing application            : Lavf57.83.100

Video
ID                             : 1
Format                         : HEVC
Format/Info                    : High Efficiency Video Coding
Format profile                 : [email protected]@Main
Codec ID                       : hev1
Codec ID/Info                  : High Efficiency Video Coding
Duration                       : 47 min 43 s
Bit rate                       : 3 177 kb/s
Width                          : 3 840 pixels
Height                         : 2 160 pixels
Display aspect ratio           : 16:9
Frame rate mode                : Constant
Frame rate                     : 25.000 FPS
Color space                    : YUV
Chroma subsampling             : 4:2:0
Bit depth                      : 8 bits
Bits/(Pixel*Frame)             : 0.015
Stream size                    : 1.06 GiB (94%)
Codec configuration box        : hvcC

Audio
ID                             : 2
Format                         : AAC LC
Format/Info                    : Advanced Audio Codec Low Complexity
Codec ID                       : mp4a-40-2
Duration                       : 47 min 43 s
Bit rate mode                  : Constant
Bit rate                       : 192 kb/s
Channel(s)                     : 2 channels
Channel layout                 : L R
Sampling rate                  : 44.1 kHz
Frame rate                     : 43.066 FPS (1024 SPF)
Compression mode               : Lossy
Stream size                    : 64.7 MiB (6%)
Default                        : Yes
Alternate group                : 1


分享快乐!
回复

使用道具 举报

 

精彩评论5

正序浏览
sheartre 发表于 2020-4-13 20:10 | 显示全部楼层
 
走向共和不是一共68集吗
分享快乐!
回复

使用道具 举报

 
dlee2008 发表于 2020-4-14 22:51 | 显示全部楼层
 
一直没速度
分享快乐!
回复

使用道具 举报

 
dhtclub 发表于 2020-4-15 04:08 | 显示全部楼层
 

不要用迅雷 网盘工具下载,必须使用传统bt下载工具。
分享快乐!
回复

使用道具 举报

 
 楼主| vampire 发表于 2020-5-7 19:28 | 显示全部楼层
 
sheartre 发表于 2020-4-13 20:10
走向共和不是一共68集吗

68集是海外的未删减版,国内的都是删减过的59集版本!
我爱你的血!
回复

使用道具 举报

 
宝娜果 发表于 2021-4-8 23:02 | 显示全部楼层
 
经典老剧,谢谢分享!!!!!!
分享快乐!
回复

使用道具 举报

 
您需要登录后才可以回帖 登录 | 立即注册

本版积分规则

0关注

11粉丝

838帖子

广告位
经典RPG武侠手游,安卓首发。
  • 版块推荐
  • 百宝箱
推荐阅读更多+
会员达人更多+
广告位
经典RPG武侠手游,安卓首发。

信息推荐

更多+

最新信息

更多+

加入我们!分享快乐!

人人为我,我为人人!抵制吸血和收费分享行为!

从我做起!

只分享高品质影视资源

只求质量、不求数量、不抢首发!

Email:[email protected]

DHTCLUB - 高品质影视资源分享俱乐部