开启左侧

朱元璋.Founding.Emperor.Of.Ming.Dynasty.2006.HDTV.1080P.H264.AAC-DHTCLUB

[复制链接]
dhtclub 发表于 2020-4-13 08:52 | 显示全部楼层 |阅读模式 打印 上一主题 下一主题

朱元璋购买VIP查看下载地址(2010~2006)1080P 

简介元朝末年,天下大乱。朱元璋自幼父母双亡,沦为乞丐,后又遁入空门。他走投无路,参加了义军,从此南征北战,一步步走上了中国历史的舞台。
  朱元璋心思缜密,把徐达、汤和等一批将才笼络在自己身边,对李善长、刘伯温等文人礼遇有加。在鄱阳湖大水战中,他以少胜多,一举消灭了劲敌陈友谅,创建了明朝。
  明朝建立后,他厉行改制严惩贪官污吏,创造了诸多治国新法,使国家迅速恢复生机。但同时,为了朱家江山永固,他大开杀戒…… 马皇后在对朱元璋的爱与恨中死去,继而太子朱标也猝然身亡,朱元璋悲痛欲绝,最终自己也随着落山的夕阳一起走向了人生的终点
导演冯小宁
编剧朱苏进
类型战争 古装 历史 传记 
地区中国内地 
语言普通话 
集数46集
资源大小87G
字幕语言内嵌繁中 
豆瓣评分8.3
豆瓣链接https://movie.douban.com/subject/3055467/
IMDB评分无分
IMDB链接
演员表

朱元璋 的主要演员表……

胡军 / 剧雪 / 郑晓宁 / 鄂布斯 / 杨洪武 / 陈长海 / 包德磐
影片介绍

朱元璋 的剧情介绍……

元朝末年,天下大乱。朱元璋自幼父母双亡,沦为乞丐,后又遁入空门。他走投无路,参加了义军,从此南征北战,一步步走上了中国历史的舞台。
  朱元璋心思缜密,把徐达、汤和等一批将才笼络在自己身边,对李善长、刘伯温等文人礼遇有加。在鄱阳湖大水战中,他以少胜多,一举消灭了劲敌陈友谅,创建了明朝。
  明朝建立后,他厉行改制严惩贪官污吏,创造了诸多治国新法,使国家迅速恢复生机。但同时,为了朱家江山永固,他大开杀戒…… 马皇后在对朱元璋的爱与恨中死去,继而太子朱标也猝然身亡,朱元璋悲痛欲绝,最终自己也随着落山的夕阳一起走向了人生的终点
资源下载
1080i/p下载地址 点击查看
4K下载地址 点击查看
《朱元璋》下载帮助和注意事项:
1、本站所有资源均为磁力链资源,无需注册登录即可查看下载地址
2、使用迅雷或网盘离线是无法下载资源的!必须使用BT下载工具,如果没有下载速度请添加我们提供的tracker服务器列表
3、推荐BT下载工具:比特彗星qbittorrentutorrent 内网使用路由请做好端口映射或开启UPnP
4、不管选择哪种P2P下载工具,都希望你能在条件允许的前提下不要限速多做种分享上传一段时间
5、刻意限制P2P下载工具的上传速度(此行为俗称:吸血)将影响你的下载速度 防止被吸血和防止运营商过滤的教程
6、人人为我我为人人,只有大家不限制上传速度,大家才能共同获得更快的下载速度,这才是P2P应有的良性循环!
7、所有资源来源网络,本站服务器不存储任何种子文件,如侵犯您的权益,请联系 [email protected] 删除资源
点评&资源版本介绍
 
朱元璋.Founding.Emperor.Of.Ming.Dynasty.2006.E01.HDTV.1080P.H264.AAC-DHTCLUB.jpg
General
Format                         : MPEG-4
Format profile                 : Base Media
Codec ID                       : isom (isom/iso2/avc1/mp41)
File size                      : 1.90 GiB
Duration                       : 45 min 57 s
Overall bit rate mode          : Variable
Overall bit rate               : 5 913 kb/s
Writing application            : Lavf58.12.100

Video
ID                             : 1
Format                         : AVC
Format/Info                    : Advanced Video Codec
Format profile                 : [email protected]
Format settings                : CABAC / 3 Ref Frames
Format settings, CABAC         : Yes
Format settings, Reference fra : 3 frames
Format settings, GOP           : M=1, N=30
Codec ID                       : avc1
Codec ID/Info                  : Advanced Video Coding
Duration                       : 45 min 57 s
Bit rate                       : 5 872 kb/s
Width                          : 1 920 pixels
Height                         : 1 080 pixels
Display aspect ratio           : 16:9
Frame rate mode                : Constant
Frame rate                     : 30.000 FPS
Color space                    : YUV
Chroma subsampling             : 4:2:0
Bit depth                      : 8 bits
Scan type                      : Progressive
Bits/(Pixel*Frame)             : 0.094
Stream size                    : 1.88 GiB (99%)
Writing library                : x264 core 152 r2851 ba24899
Encoding settings              : cabac=1 / ref=3 / deblock=1:0:0 / analyse=0x3:0x113 / me=hex / subme=7 / psy=1 / psy_rd=1.00:0.00 / mixed_ref=1 / me_range=16 / chroma_me=1 / trellis=1 / 8x8dct=1 / cqm=0 / deadzone=21,11 / fast_pskip=1 / chroma_qp_offset=-2 / threads=34 / lookahead_threads=5 / sliced_threads=0 / nr=0 / decimate=1 / interlaced=0 / bluray_compat=0 / constrained_intra=0 / bframes=0 / weightp=2 / keyint=30 / keyint_min=16 / scenecut=0 / intra_refresh=0 / rc_lookahead=30 / rc=abr / mbtree=1 / bitrate=5872 / ratetol=1.0 / qcomp=0.60 / qpmin=0 / qpmax=69 / qpstep=4 / vbv_maxrate=5900 / vbv_bufsize=5872 / nal_hrd=none / filler=0 / ip_ratio=1.40 / aq=1:1.00
Codec configuration box        : avcC

Audio
ID                             : 2
Format                         : AAC LC
Format/Info                    : Advanced Audio Codec Low Complexity
Codec ID                       : mp4a-40-2
Duration                       : 45 min 57 s
Bit rate mode                  : Variable
Bit rate                       : 64.5 kb/s
Maximum bit rate               : 68.3 kb/s
Channel(s)                     : 2 channels
Channel layout                 : L R
Sampling rate                  : 48.0 kHz
Frame rate                     : 46.875 FPS (1024 SPF)
Compression mode               : Lossy
Stream size                    : 21.2 MiB (1%)
Default                        : Yes
Alternate group                : 1


分享快乐!
回复

使用道具 举报

 

精彩评论7

正序浏览
dlee2008 发表于 2020-4-14 22:53 | 显示全部楼层
 
一直没速度哦
分享快乐!
回复

使用道具 举报

 
svipdht 发表于 2020-4-22 21:32 | 显示全部楼层
 
感谢大佬分享
分享快乐!
回复

使用道具 举报

 
lmt19841123 发表于 2020-4-28 20:35 | 显示全部楼层
 
感谢楼主分享
分享快乐!
回复

使用道具 举报

 
飞猪 发表于 2020-4-29 00:25 | 显示全部楼层
 
低成本制作,但绝对经典。
成本主要靠导演、编剧和演员支撑了。图中演员全部教科书级的
也许低成本导演编剧才能放得开,高成本往往受制于人,经典难成。

要是有(未删减版全50集)1080p、2160p、4K   就更好了
d01373f082025aafd724330bfeedab64024f1adf.jpg b21bb051f81986181a53078649ed2e738bd4e698.jpg faf2b2119313b07ee3bf52860ad7912397dd8c39.jpg
0b55b319ebc4b745df3bd9f3c9fc1e178b8215a3.jpg b58f8c5494eef01f8993cfb3e0fe9925bd317dc5.jpg faedab64034f78f0e22b731f7c310a55b3191c3d.jpg
c8177f3e6709c93d4993401f953df8dcd00054f0.jpg b8014a90f603738de1088792b31bb051f919ecc4.jpg

a50f4bfbfbedab6448a9d9d5ff36afc378311ecf.jpg


b64543a98226cffc06fd6251b9014a90f703ea7a.jpg
bd315c6034a85edfce7b930e4b540923dd547523.jpg
分享快乐!
回复

使用道具 举报

 
dhtclub 发表于 2020-4-29 00:45 | 显示全部楼层
 
飞猪 发表于 2020-4-29 00:25
低成本制作,但绝对经典。
低成本主要靠导演、编剧和演员支撑了。图中演员全部教科书级的。
也许低成本导 ...

很遗憾没有50集未删减版本的。
分享快乐!
回复

使用道具 举报

 
 楼主| MD先生 发表于 2020-5-2 13:54 | 显示全部楼层
 
胡军版的朱元璋未见过。
分享快乐!
回复

使用道具 举报

 
生死幻灭 发表于 2021-4-8 20:17 | 显示全部楼层
 
这个版本绝了 大秦帝国第三部4K 清晰度都没这个清楚  感谢分享
分享快乐!
回复

使用道具 举报

 
您需要登录后才可以回帖 登录 | 立即注册

本版积分规则

0关注

11粉丝

838帖子

广告位
经典RPG武侠手游,安卓首发。
  • 版块推荐
  • 百宝箱
推荐阅读更多+
会员达人更多+
广告位
经典RPG武侠手游,安卓首发。

信息推荐

更多+

最新信息

更多+

加入我们!分享快乐!

人人为我,我为人人!抵制吸血和收费分享行为!

从我做起!

只分享高品质影视资源

只求质量、不求数量、不抢首发!

Email:[email protected]

DHTCLUB - 高品质影视资源分享俱乐部