开启左侧

我是余欢水.If.There's.No.Tomorrow.2020.WEB-DL.4K.H265.AAC-DHTCLUB

[复制链接]
dhtclub 发表于 2020-4-15 11:56 | 显示全部楼层 |阅读模式 打印 上一主题 下一主题

我是余欢水购买VIP查看下载地址(2020)4K 

简介正午阳光与爱奇艺达成合作,推出基于余耕(本名王兵)小说《如果没有明天》改编的超级网剧《我是余欢水》,由《都挺好》编剧王三毛、王磊父子改编,孙墨龙执导,侯鸿亮制片。原著小说以诙谐荒诞的方式描写了社会底层小人物余欢水的艰难境遇与心路历程。余欢水懦弱胆小、退让隐忍,身患绝症反而给了他为自己活一次的勇气。经历了命运的捉弄,余欢水依然坚守善良,强大内心,他挺直腰杆,理直气壮地活出尊严,感知了幸福。
导演孙墨龙
编剧王三毛 / 王磊
类型剧情 
地区中国内地 
语言普通话 
集数12集
资源大小20.5G
字幕语言内嵌简中 
豆瓣评分8.4
豆瓣链接https://movie.douban.com/subject/33442331/
IMDB评分6.8.
IMDB链接https://www.imdb.com/title/tt12026744
演员表

我是余欢水 的主要演员表……

郭京飞 / 苗苗 / 高露 / 岳旸 / 高叶 / 冯晖 / 赵达 / 张隽溢 / 宁文彤 / 李庆誉 / 王沛禄 / 王晴 / 叶青 / 尚铁龙 / 周鹏雨 / 李至强 / 李倩 / 范湉湉 / 赵千紫 / 梁大维 / 高海鹏 / 傅铂涵 / 李明珠 / 邢瀚卿 / 葛凌芮 / 冯鹏 / 王禹铮 / 郑杨 / 卜宇鑫 / 闫鹏 / 崔绍涵 / 王煜 / 李金江 / 谭希和 / 孙梦佳 / 王宏 / 刘冠麟 / 穆丽燕 / 焦体怡 / 丁勇岱 / 陈牧扬 / 任帅 / 李克伟 / 陈小妹 / 马波 / 董可飞
影片介绍

我是余欢水 的剧情介绍……

正午阳光与爱奇艺达成合作,推出基于余耕(本名王兵)小说《如果没有明天》改编的超级网剧《我是余欢水》,由《都挺好》编剧王三毛、王磊父子改编,孙墨龙执导,侯鸿亮制片。原著小说以诙谐荒诞的方式描写了社会底层小人物余欢水的艰难境遇与心路历程。余欢水懦弱胆小、退让隐忍,身患绝症反而给了他为自己活一次的勇气。经历了命运的捉弄,余欢水依然坚守善良,强大内心,他挺直腰杆,理直气壮地活出尊严,感知了幸福。
资源下载
1080i/p下载地址 点击查看
4K下载地址 点击查看
《我是余欢水》下载帮助和注意事项:
1、本站所有资源均为磁力链资源,无需注册登录即可查看下载地址
2、使用迅雷或网盘离线是无法下载资源的!必须使用BT下载工具,如果没有下载速度请添加我们提供的tracker服务器列表
3、推荐BT下载工具:比特彗星qbittorrentutorrent 内网使用路由请做好端口映射或开启UPnP
4、不管选择哪种P2P下载工具,都希望你能在条件允许的前提下不要限速多做种分享上传一段时间
5、刻意限制P2P下载工具的上传速度(此行为俗称:吸血)将影响你的下载速度 防止被吸血和防止运营商过滤的教程
6、人人为我我为人人,只有大家不限制上传速度,大家才能共同获得更快的下载速度,这才是P2P应有的良性循环!
7、所有资源来源网络,本站服务器不存储任何种子文件,如侵犯您的权益,请联系 [email protected] 删除资源
点评&资源版本介绍
 
我是余欢水.If.There's.No.Tomorrow.2020.E01.WEB-DL.4K.H265.AAC-DHTCLUB.jpg
General
Format                         : MPEG-4
Format profile                 : Base Media
Codec ID                       : isom (isom/iso2/mp41)
File size                      : 1.71 GiB
Duration                       : 44 min 9 s
Overall bit rate mode          : Variable
Overall bit rate               : 5 559 kb/s
Recorded date                  : 2020-04-13T17:27:51.4652748+08:00
Writing application            : Lavf58.32.104

Video
ID                             : 1
Format                         : HEVC
Format/Info                    : High Efficiency Video Coding
Format profile                 : [email protected]@Main
Codec ID                       : hev1
Codec ID/Info                  : High Efficiency Video Coding
Duration                       : 44 min 9 s
Bit rate                       : 5 425 kb/s
Width                          : 3 840 pixels
Height                         : 1 824 pixels
Display aspect ratio           : 2.105
Frame rate mode                : Variable
Frame rate                     : 25.000 FPS
Minimum frame rate             : 24.993 FPS
Maximum frame rate             : 25.007 FPS
Color space                    : YUV
Chroma subsampling             : 4:2:0
Bit depth                      : 8 bits
Bits/(Pixel*Frame)             : 0.031
Stream size                    : 1.67 GiB (98%)
Codec configuration box        : hvcC

Audio
ID                             : 2
Format                         : AAC LC
Format/Info                    : Advanced Audio Codec Low Complexity
Codec ID                       : mp4a-40-2
Duration                       : 44 min 9 s
Bit rate mode                  : Variable
Bit rate                       : 128 kb/s
Maximum bit rate               : 138 kb/s
Channel(s)                     : 2 channels
Channel layout                 : L R
Sampling rate                  : 48.0 kHz
Frame rate                     : 46.875 FPS (1024 SPF)
Compression mode               : Lossy
Stream size                    : 40.4 MiB (2%)
Default                        : Yes
Alternate group                : 1

标签:余欢tomorrow
分享快乐!
回复

使用道具 举报

 

精彩评论3

正序浏览
饶李芬芳 发表于 2020-4-19 22:43 | 显示全部楼层
 
谢谢分享好资源
分享快乐!
回复

使用道具 举报

 
忘了… 发表于 2020-4-28 10:14 | 显示全部楼层
 
这部剧挺搞笑的
分享快乐!
回复

使用道具 举报

 
1501421759 发表于 2021-6-19 19:49 | 显示全部楼层
 
感谢分享:
分享快乐!
回复

使用道具 举报

 
您需要登录后才可以回帖 登录 | 立即注册

本版积分规则

0关注

11粉丝

838帖子

广告位
经典RPG武侠手游,安卓首发。
  • 版块推荐
  • 百宝箱
推荐阅读更多+
会员达人更多+
广告位
经典RPG武侠手游,安卓首发。

信息推荐

更多+

最新信息

更多+

加入我们!分享快乐!

人人为我,我为人人!抵制吸血和收费分享行为!

从我做起!

只分享高品质影视资源

只求质量、不求数量、不抢首发!

Email:[email protected]

DHTCLUB - 高品质影视资源分享俱乐部