开启左侧

亮剑.李幼斌无删减版.Drawing.Sword.2005.WEB-DL.4K.2160P.HEVC.AAC-DHTCLUB

[复制链接]
dhtclub 发表于 2020-2-27 19:04 | 显示全部楼层 |阅读模式 打印 上一主题 下一主题

亮剑购买VIP查看下载地址(2005~2000)1080P 4K 

简介129师386旅独立团的团长李云龙(李幼斌 饰)是个敢想敢干,不按规矩办事的愣头青,他脾气火爆,性格直爽,在他的带领下,整个独立团也呈现出敢于拼杀的不要命劲头。在他面前,不可一世的坂田连队、山崎大队、山本部队接连败下阵来,李云龙名声大噪,却也因屡次犯规而遭贬斥。抗日战争时期,他与国军358团团长楚云飞(张光北 饰)惺惺相惜,却又不得不在徐蚌会战时一较高下,最终二人皆负重伤。养病期间,李云龙喜欢上善良可人的护士田雨(童蕾 饰),两个革命战友从此走到一起。在随后几十年的日子里,这对夫妻以及他们的亲人、战友共同经历着这个国家的沧桑巨变……
  本片根据都梁的同名小说《亮剑》改编。
导演张前 / 陈健
编剧都梁 / 江奇涛
类型剧情 战争 
地区中国内地 
语言普通话 
集数30集
资源大小57.1G
字幕语言内嵌简中 
豆瓣评分9.3
豆瓣链接https://movie.douban.com/subject/2254648
IMDB评分8.2
IMDB链接https://www.imdb.com/title/tt3803340
演员表

亮剑 的主要演员表……

李幼斌 / 何政军 / 张光北 / 童蕾 / 孙俪 / 战卫华 / 陆彭 / 张桐 / 由力 / 王全有 / 张笑君 / 梁林琳 / 杨联春 / 车晓彤 / 陈艺戈 / 江水 / 宗利群 / 张伟 / 陈旺林 / 袁满 / 张国荣 / 董祁明 / 王炎冰 / 蔡小龙 / 徐雷智 / 田勇 / 郭苏星 / 田春山 / 荣钦 / 柴孛志 / 赵中华 / 李江 / 张建祥 / 孟耿成 / 陈增祺 / 寒丰 / 袁乃旗 / 韩建平 / 常玉平 / 那志东
影片介绍

亮剑 的剧情介绍……

129师386旅独立团的团长李云龙(李幼斌 饰)是个敢想敢干,不按规矩办事的愣头青,他脾气火爆,性格直爽,在他的带领下,整个独立团也呈现出敢于拼杀的不要命劲头。在他面前,不可一世的坂田连队、山崎大队、山本部队接连败下阵来,李云龙名声大噪,却也因屡次犯规而遭贬斥。抗日战争时期,他与国军358团团长楚云飞(张光北 饰)惺惺相惜,却又不得不在徐蚌会战时一较高下,最终二人皆负重伤。养病期间,李云龙喜欢上善良可人的护士田雨(童蕾 饰),两个革命战友从此走到一起。在随后几十年的日子里,这对夫妻以及他们的亲人、战友共同经历着这个国家的沧桑巨变……
  本片根据都梁的同名小说《亮剑》改编。
资源下载
1080i/p下载地址 点击查看
4K下载地址 点击查看
《亮剑》下载帮助和注意事项:
1、本站所有资源均为磁力链资源,无需注册登录即可查看下载地址
2、使用迅雷或网盘离线是无法下载资源的!必须使用BT下载工具,如果没有下载速度请添加我们提供的tracker服务器列表
3、推荐BT下载工具:比特彗星qbittorrentutorrent 内网使用路由请做好端口映射或开启UPnP
4、不管选择哪种P2P下载工具,都希望你能在条件允许的前提下不要限速多做种分享上传一段时间
5、刻意限制P2P下载工具的上传速度(此行为俗称:吸血)将影响你的下载速度 防止被吸血和防止运营商过滤的教程
6、人人为我我为人人,只有大家不限制上传速度,大家才能共同获得更快的下载速度,这才是P2P应有的良性循环!
7、所有资源来源网络,本站服务器不存储任何种子文件,如侵犯您的权益,请联系 [email protected] 删除资源
点评&资源版本介绍

点评

DHTCLUB评分: 4.0
海!外直播 v.ht/79999 禁闻视频 v.ht/55533 专家说:未来十年,中国癌症将现井喷。33%的家庭,将因此耗尽所有积蓄。1/4中国人喝不上合格水;全球空气污染最严重的城市,一半以上在中国。生命可贵!看这个..  发表于 2022-11-7 22:04
DHTCLUB评分: 4
  发表于 2020-3-4 07:44
 
亮剑.李幼斌无删减版.Drawing.Sword.2005.E01.WEB-DL.4K.2160P.HEVC.AAC-DHTCLUB.jpg
4K版本是无水印无删减版本
General
Format                         : MPEG-4
Format profile                 : Base Media
Codec ID                       : isom (isom/iso2/mp41)
File size                      : 1.90 GiB
Duration                       : 43 min 34 s
Overall bit rate mode          : Variable
Overall bit rate               : 6 252 kb/s
Writing application            : Lavf58.12.100

Video
ID                             : 1
Format                         : HEVC
Format/Info                    : High Efficiency Video Coding
Format profile                 : [email protected]@Main
Codec ID                       : hev1
Codec ID/Info                  : High Efficiency Video Coding
Duration                       : 43 min 34 s
Bit rate                       : 6 179 kb/s
Width                          : 3 840 pixels
Height                         : 2 880 pixels
Display aspect ratio           : 4:3
Frame rate mode                : Constant
Frame rate                     : 25.000 FPS
Color space                    : YUV
Chroma subsampling             : 4:2:0
Bit depth                      : 8 bits
Bits/(Pixel*Frame)             : 0.022
Stream size                    : 1.88 GiB (99%)
Codec configuration box        : hvcC

Audio
ID                             : 2
Format                         : AAC LC
Format/Info                    : Advanced Audio Codec Low Complexity
Codec ID                       : mp4a-40-2
Duration                       : 43 min 34 s
Bit rate mode                  : Variable
Bit rate                       : 66.2 kb/s
Maximum bit rate               : 70.6 kb/s
Channel(s)                     : 2 channels
Channel layout                 : L R
Sampling rate                  : 44.1 kHz
Frame rate                     : 43.066 FPS (1024 SPF)
Compression mode               : Lossy
Stream size                    : 20.5 MiB (1%)
Default                        : Yes
Alternate group                : 1

亮剑.JSTV.Drawing.Sword.E01.1080i.HDTV.MPEG2-DHTCLUB.jpg
1080i版本是江苏卫视有水印无删减版,容量144.8G
General
ID                             : 1 (0x1)
Format                         : MPEG-TS
File size                      : 4.79 GiB
Duration                       : 42 min 2 s
Overall bit rate mode          : Variable
Overall bit rate               : 16.3 Mb/s

Video
ID                             : 256 (0x100)
Menu ID                        : 1 (0x1)
Format                         : MPEG Video
Format version                 : Version 2
Format profile                 : [email protected]
Format settings, BVOP          : No
Format settings, Matrix        : Default
Format settings, GOP           : N=25
Codec ID                       : 2
Duration                       : 42 min 3 s
Bit rate mode                  : Variable
Bit rate                       : 15.2 Mb/s
Width                          : 1 920 pixels
Height                         : 1 080 pixels
Display aspect ratio           : 16:9
Frame rate                     : 25.000 FPS
Color space                    : YUV
Chroma subsampling             : 4:2:0
Bit depth                      : 8 bits
Scan type                      : Progressive
Compression mode               : Lossy
Bits/(Pixel*Frame)             : 0.293
Stream size                    : 4.46 GiB (93%)

Audio
ID                             : 257 (0x101)
Menu ID                        : 1 (0x1)
Format                         : AC-3
Format/Info                    : Audio Coding 3
Commercial name                : Dolby Digital
Codec ID                       : 129
Duration                       : 42 min 2 s
Bit rate mode                  : Constant
Bit rate                       : 320 kb/s
Channel(s)                     : 2 channels
Channel layout                 : L R
Sampling rate                  : 48.0 kHz
Frame rate                     : 31.250 FPS (1536 SPF)
Bit depth                      : 16 bits
Compression mode               : Lossy
Delay relative to video        : -16 ms
Stream size                    : 96.2 MiB (2%)
Service kind                   : Complete Main

Menu
ID                             : 4096 (0x1000)
Menu ID                        : 1 (0x1)
Duration                       : 42 min 2 s
List                           : 256 (0x100) (MPEG Video) / 257 (0x101) (AC-3)
Service name                   : 浜?墤01.m2t
Service provider               : FFmpeg
Service type                   : digital television

分享快乐!
回复

使用道具 举报

 

精彩评论46

正序浏览
vampire 发表于 2020-2-27 19:38 | 显示全部楼层
 
好经典的国剧啊!在抗战电视剧中为数不多能看下去的清流啊!
我爱你的血!
回复

使用道具 举报

 
落花飞雪 发表于 2020-2-27 19:58 | 显示全部楼层
 
我爸超喜欢看这剧,那就必须要收下这完整版才行
分享快乐!
回复

使用道具 举报

 
svipdht 发表于 2020-2-28 03:09 | 显示全部楼层
 
感谢分享。支持,感谢
分享快乐!
回复

使用道具 举报

 
svipdht 发表于 2020-2-28 03:13 | 显示全部楼层
 
老大呀,怎么提示错误的连接
分享快乐!
回复

使用道具 举报

 
dhtclub 发表于 2020-2-28 08:57 | 显示全部楼层
 
svipdht 发表于 2020-2-28 03:13
老大呀,怎么提示错误的连接

你用什么BT客户端下载的,上传错误截图给我看看。
分享快乐!
回复

使用道具 举报

 
 楼主| beyondsega 发表于 2020-2-28 09:37 | 显示全部楼层
 
115显示错误连接
分享快乐!
回复

使用道具 举报

 
dhtclub 发表于 2020-2-28 10:12 | 显示全部楼层
 

兄弟麻烦仔细看下下再说明,我们官方做种是屏蔽吸血客户端的,请使用我们推荐的BT客户端下载,如果非要用115,那你也是等其他小伙伴愿意上传115,才会被115离线缓存秒下。我们DHTCLUB官方带宽有限,都用于BT做种上传,是不会上传115 百度网盘这些的,还请谅解。
分享快乐!
回复

使用道具 举报

 
 楼主| dhbskgb 发表于 2020-2-28 11:55 | 显示全部楼层
 
要是有个视频截图就更好啦。
分享快乐!
回复

使用道具 举报

 
ruoyufei 发表于 2020-2-28 12:01 | 显示全部楼层
 
谢谢分享。很经典的资源
分享快乐!
回复

使用道具 举报

 
您需要登录后才可以回帖 登录 | 立即注册

本版积分规则

0关注

18粉丝

869帖子

广告位
经典RPG武侠手游,安卓首发。
  • 版块推荐
  • 百宝箱
推荐阅读更多+
会员达人更多+
  • e2302

    主题:0 积分:11445
  • LCC

    主题:0 积分:9628
  • reese

    主题:0 积分:9091
广告位
经典RPG武侠手游,安卓首发。

信息推荐

更多+

最新信息

更多+

加入我们!分享快乐!

人人为我,我为人人!抵制吸血和收费分享行为!

从我做起!

只分享高品质影视资源

只求质量、不求数量、不抢首发!

Email:[email protected]

DHTCLUB - 高品质影视资源分享俱乐部